如资源无法下载,请在「交流」反馈!

[2020][大陆][剧情][全集][网盘下载][韫色过浓][全24集][国语中字.4K修复水印][WEB-MKV][2160P(4K)][Vampire][失效不免费补]

已认证 q 1月前 94


◎译  名 Intense Love

◎片  名 韫色过浓

◎年  代 2020

◎产  地 中国大陆

◎类  别 剧情 / 爱情

◎语  言 汉语普通话

◎上映日期 2020-05-02(中国大陆)

◎IMDb评分 7.6/10 from 70 users

◎IMDb链接 https://www.imdb.com/title/tt12228014

◎豆瓣评分 5.3/10 from 42979 users

◎豆瓣链接 https://movie.douban.com/subject/34800631

◎集  数 24

◎片  长 39分钟

◎导  演 蔡聪 Cong Cai

◎编  剧 蒋渝 Yu Jiang / 王敏娜 Minna Wang / 刘奕汝 Yiru Liu / 杨雅茗 Yaming Yang

◎主  演 张予曦 Yuxi Zhang

      丁禹兮 Yuxi Ding

      师铭泽 K-noor

      完颜洛绒 Julio

      林昕宜 Xinyi Lin

      张垚 Yao Zhang

      吴恙 Yang Wu

      王艺禅 Yichan Wang

      刘旭 Xu Liu

      歪歪 Fuzheng Zhang

      公方敏 Fangmin Gong

      计林 Lin Ji

      黄世超 Shichao Huang

      罗佩 Jie Luo


◎标  签 甜宠 | 小甜剧 | 爱情 | 恋爱 | 网络剧 | 2020 | 小说改编 | 情侣


◎简  介


  苏矜北(张予曦 饰)的家人在早年间就替她定下了婚约,然而个性倔强的苏矜北不愿意顺从父母的安排,果断逃婚了。可之后没多久,她便因为一场意外的车祸而住进了医院。苏矜北的主治医生是一个名叫周时韫(丁禹兮 饰)的男人,让苏矜北没有想到的是,这个英俊帅气又冷酷无情的医生竟然就是那个她从前避之而不及的“未婚夫”。

  苏矜北一下子就坠入了情网之中,对周时韫展开了热烈的追求,不过她并没有暴露自己的真实身份。然而,聪明的周时韫早就看穿了苏矜北的小小伎俩,对她的身世了若指掌。在实力如此悬殊的情况下,苏矜北能够撩得动这座万年冰山吗?



General


Format : Matroska

Format version : Version 4

File size : 3.04 GiB

Duration : 43 min 31 s

Overall bit rate : 9 999 kb/s

Movie name : 韫色过浓/Intense.Love

Encoded date : UTC 2021-08-09 17:14:45

Writing application : mkvmerge v55.0.0 ('Waiting For Space') 64-bit

Writing library : libebml v1.4.2 + libmatroska v1.6.4

Cover : Yes

Comment : 警告:严禁将本人制作的任何作品用于商业性质活动,所有制作作品仅限于测试宽带之用,请于下载后24小时内删除。本人不承担任何法律后果!喜欢本作品请购买正版!!!

Attachments : cover.jpg

ARTIST : Vampire制作分享作品

DATE_RECORDED : 2020

GENRE : 中国大陆


Video

ID : 1

Format : HEVC

Format/Info : High Efficiency Video Coding

Format profile : [email protected]@Main

Codec ID : V_MPEGH/ISO/HEVC

Duration : 43 min 31 s

Bit rate : 9 869 kb/s

Width : 3 840 pixels

Height : 2 160 pixels

Display aspect ratio : 16:9

Frame rate mode : Constant

Frame rate : 25.000 FPS

Color space : YUV

Chroma subsampling : 4:2:0

Bit depth : 8 bits

Bits/(Pixel*Frame) : 0.048

Stream size : 3.00 GiB (99%)

Title : Vampire制作分享作品

Language : Chinese

Default : Yes

Forced : No


Audio

ID : 2

Format : AAC LC

Format/Info : Advanced Audio Codec Low Complexity

Codec ID : A_AAC-2

Duration : 43 min 31 s

Bit rate : 126 kb/s

Channel(s) : 2 channels

Channel layout : L R

Sampling rate : 44.1 kHz

Frame rate : 43.066 FPS (1024 SPF)

Compression mode : Lossy

Stream size : 39.1 MiB (1%)

Title : 汉语普通话

Language : Chinese

Default : Yes

Forced : No


本人发布的种子请使用专业BT下载工具:

UT,Bitcomet,qBittorrent,Xdown开启上传后再下载!!!

使用迅雷或度盘离线可能会没速度!!!


视频的网盘资源均在视频后缀(如mp4或mkv)后又跟随了.xy(mp4.xy或mkv.xy)用以混淆网盘官方视听!
并且加密了文件名,设置了独有的解压密码,请使用WinRAR解压,使用好压或其他可能会出错!
已完结剧集不再分集打包上传,整体打包后分卷,无法单独下载某一集,需要全部下载后一起解压,敬请知晓!
请各位下载的坛友先保存至自己的网盘,然后再进行下载!

不要直接在线观看或者解压,否则会很快被网盘官方发觉并和谐!


阿里云盘后缀名凡是“PDF”的,请在下载完成后将后缀名“PDF”修改为“rar”,即可正常解压,观看!

目前阿里云盘上传和下载均不限速,趁着这段“免费VIP”的时间,就暂时放弃度盘吧!


请下载完成的朋友自觉做种一段时间,小水管出种不易,且下且珍惜,谢谢!!!


解压请使用官方原版WinRAR,使用破解版或者好压等软件可能会出错,感谢所有赞赏的朋友!!!



《韫色过浓》全24集.2160P(4K).H265.国语中字高码4K修复阿里云盘版(共约68.9GB)[失效不免费补].rar
还没有人收藏过本帖~
最新回复 (0)
返回
发新帖
即将对游客闭站,请注册账号备用!
影音屋为您提供最新的720P、1080P、2K、4K、原盘高清电影下载,内部交流社区,欢迎体验。影音屋,更多好电影待您发现!
加入福利电报群 加入福利企鹅群 淘宝天猫漏洞单