如资源无法下载,请在「交流」反馈!

[更 早][泰国][动作][WEB-1080P]米娅 The.Bullet.Wives.2005.THAI.1080p.NF.WEBRip.AAC2.0.x264-RSG 2.65GB


帖子完整标题:米娅 The.Bullet.Wives.2005.THAI.1080p.NF.WEBRip.AAC2.0.x264-RSG 2.65GB



◎译  名 米娅
◎片  名 ????????
◎年  代 2005
◎产  地 泰国
◎类  别 动作 / 奇幻
◎语  言 泰语
◎上映日期 2005-04-06
◎豆瓣评分 /10 from 0 users
◎豆瓣链接 https://movie.douban.com/subject/3072553/
◎片  长 77分钟
◎导  演 基蒂科恩·利亚西里昆 Kittikorn Liasirikun
◎主  演 彭帕克·西里古尔 Penpak Sirikul

◎标  签 第三者 | 泰国 | 女人 | 动作 | 米娅 | 女性 | Mia | 2

◎简  介

  战后泰国男女比例达到6:1,男人在有元配后寻找情人成为广泛的社会现象。于是元配和第三者分别集合成两个对立阵营,进行作战。

Video
ID : 1
Format : AVC
Format/Info : Advanced Video Codec
Format profile : [email protected]
Format settings : CABAC / 4 Ref Frames
Format settings, CABAC : Yes
Format settings, Reference frames : 4 frames
Codec ID : V_MPEG4/ISO/AVC
Duration : 1 h 17 min
Bit rate mode : Constant
Bit rate : 4 759 kb/s
Nominal bit rate : 5 000 kb/s
Width : 1 920 pixels
Height : 1 080 pixels
Display aspect ratio : 16:9
Frame rate mode : Constant
Frame rate : 25.000 FPS
Color space : YUV
Chroma subsampling : 4:2:0
Bit depth : 8 bits
Scan type : Progressive
Bits/(Pixel*Frame) : 0.092
Stream size : 2.58 GiB (97%)
Default : Yes
Forced : No

Audio
ID : 2
Format : AAC LC
Format/Info : Advanced Audio Codec Low Complexity
Codec ID : A_AAC-2
Duration : 1 h 17 min
Bit rate : 128 kb/s
Channel(s) : 2 channels
Channel layout : L R
Sampling rate : 48.0 kHz
Frame rate : 46.875 FPS (1024 SPF)
Compression mode : Lossy
Stream size : 71.2 MiB (3%)
Language : Thai
Default : Yes
Forced : No

Text
ID : 3
Format : UTF-8
Codec ID : S_TEXT/UTF8
Codec ID/Info : UTF-8 Plain Text
Duration : 1 h 13 min
Bit rate : 26 b/s
Count of elements : 462
Stream size : 14.5 KiB (0%)
Title : English DVD
Language : English
Default : No
Forced : No






The.Bullet.Wives.2005.THAI.1080p.NF.WEBRip.AAC2.0.x264-RSG.torrent
还没有人收藏过本帖~
最新回复 (0)
返回