如资源无法下载,请在「交流」反馈!

[2020][日本][剧情][WEB-1080P]真心的符号 电影版 The.Real.Thing.2020.JAPANESE.ENSUBBED.1080p.AMZN.WEBRip.DDP5.1.x264-RS


帖子完整标题:真心的符号 电影版 The.Real.Thing.2020.JAPANESE.ENSUBBED.1080p.AMZN.WEBRip.DDP5.1.x264-RSG 16.61GB



◎译  名 真心的符号 电影版/The Real Thing/真爱假不了(港)/虚情真意(台)
◎片  名 本気のしるし
◎年  代 2020
◎产  地 日本
◎类  别 剧情 / 爱情
◎语  言 日语
◎上映日期 2020-10-09(日本)
◎豆瓣评分 6.3/10 from 129 users
◎豆瓣链接 https://movie.douban.com/subject/35088871/
◎片  长 228分钟
◎导  演 深田晃司 Koji Fukada
◎编  剧 三谷伸太朗 / 深田晃司 Koji Fukada / 星里望留
◎主  演 森崎温 Win Morisaki
      土村芳 Kaho Tsuchimura
      宇野祥平 Sh?hei Uno
      石桥桂 Kei Ishibashi

◎标  签 日本 | 深田晃司 | 2020 | 爱情 | 日本电影 | 戛纳电影节 | 生活 | 戛纳2020

◎简  介

  公司职员辻工作认真负责,颇得上司和客户的欣赏。但他对于感情暧昧不清,同时与两名女同事保持着亲密关系。一天,就在辻对自己感到迷惘、不安之际,他遇到了一个名为“浮世”的神秘女子,还在道口救了她一命,一段纠葛不清的情谊由此开始。浮世似乎对人毫无防备之心,这使得她不断地给自己和别人带来问题。但是每当她陷入麻烦,辻却仍是一次又一次地帮她脱困,这也让辻陷入了更糟糕的境地。改编自著名漫画家星里望留的漫画原作,曾经拍摄成电视剧集,电影版入选第72届戛纳国际电影节。

◎获奖情况

  第73届戛纳电影节 ?(2020)
  入选过戛纳导演作品(提名)
  
  第4届平遥国际电影展 ?(2020)
  首映单元最受欢迎影片(提名) 深田晃司

Video
ID : 1
Format : AVC
Format/Info : Advanced Video Codec
Format profile : [email protected]
Format settings : CABAC / 4 Ref Frames
Format settings, CABAC : Yes
Format settings, Reference frames : 4 frames
Codec ID : V_MPEG4/ISO/AVC
Duration : 3 h 52 min
Bit rate mode : Constant
Bit rate : 10 000 kb/s
Width : 1 920 pixels
Height : 1 080 pixels
Display aspect ratio : 16:9
Frame rate mode : Constant
Frame rate : 23.976 (24000/1001/189150) FPS
Color space : YUV
Chroma subsampling : 4:2:0
Bit depth : 8 bits
Scan type : Progressive
Bits/(Pixel*Frame) : 0.201
Stream size : 15.6 GiB (94%)
Title : The.Real.Thing.2020.1080p.AMZN.HC.WEB-DL.DDP5.1.H.264-RSG
Default : Yes
Forced : No
Color range : Limited
Color primaries : BT.709
Transfer characteristics : BT.709
Matrix coefficients : BT.709

Audio
ID : 2
Format : E-AC-3
Format/Info : Enhanced AC-3
Commercial name : Dolby Digital Plus
Codec ID : A_EAC3
Duration : 3 h 52 min
Bit rate mode : Constant
Bit rate : 640 kb/s
Channel(s) : 6 channels
Channel layout : L R C LFE Ls Rs
Sampling rate : 48.0 kHz
Frame rate : 31.250 FPS (1536 SPF)
Compression mode : Lossy
Stream size : 1.04 GiB (6%)
Title : The.Real.Thing.2020.1080p.AMZN.HC.WEB-DL.DDP5.1.H.264-RSG
Language : Japanese
Service kind : Complete Main
Default : Yes
Forced : No






The.Real.Thing.2020.JAPANESE.ENSUBBED.1080p.AMZN.WEBRip.DDP5.1.x264-RSG.torrent
还没有人收藏过本帖~
最新回复 (0)
返回