如资源无法下载,请在「交流」反馈!

[2017][其他][剧情][WEB-1080P]漫游肥皂剧 The.Wandering.Soap.Opera.2017.SPANISH.1080p.AMZN.WEBRip.DDP2.0.x264-NOGRP


帖子完整标题:漫游肥皂剧 The.Wandering.Soap.Opera.2017.SPANISH.1080p.AMZN.WEBRip.DDP2.0.x264-NOGRP 4.79GB



◎译  名 漫游肥皂剧/The Wandering Soap Opera
◎片  名 La Telenovela Errante
◎年  代 2017
◎产  地 智利
◎类  别 剧情 / 喜剧 / 奇幻
◎语  言 西班牙语
◎上映日期 2017-08-10(洛迦诺电影节)
◎豆瓣评分 6.7/10 from 115 users
◎豆瓣链接 https://movie.douban.com/subject/27089171/
◎片  长 80分钟
◎导  演 劳尔·鲁伊斯 Raoul Ruiz / 瓦莱丽亚·萨米恩托 Valeria Sarmiento
◎编  剧 劳尔·鲁伊斯 Raoul Ruiz

◎标  签 智利 | 2017 | 奇幻 | Raoul_Ruiz | 智利电影 | 剧情 | 拉美 | RaoulRuiz

◎简  介

  这部电影围绕肥皂剧的概念展开。 它的结构基于这样的假设:智利的现实不存在,而是肥皂剧的合奏。

◎获奖情况

  第70届洛迦诺国际电影节 ?(2017)
  金豹奖(提名) 瓦莱丽亚·萨米恩托?/?劳尔·鲁伊斯

Video
ID : 1
Format : AVC
Format/Info : Advanced Video Codec
Format profile : [email protected]
Format settings : CABAC / 4 Ref Frames
Format settings, CABAC : Yes
Format settings, Reference frames : 4 frames
Codec ID : V_MPEG4/ISO/AVC
Duration : 1 h 18 min
Bit rate mode : Constant
Bit rate : 8 570 kb/s
Nominal bit rate : 10 000 kb/s
Width : 1 440 pixels
Height : 1 080 pixels
Display aspect ratio : 4:3
Frame rate mode : Constant
Frame rate : 24.000 FPS
Color space : YUV
Chroma subsampling : 4:2:0
Bit depth : 8 bits
Scan type : Progressive
Bits/(Pixel*Frame) : 0.230
Stream size : 4.67 GiB (97%)
Default : Yes
Forced : No
Color range : Limited
Color primaries : BT.709
Transfer characteristics : BT.709
Matrix coefficients : BT.709

Audio
ID : 2
Format : E-AC-3
Format/Info : Enhanced AC-3
Commercial name : Dolby Digital Plus
Codec ID : A_EAC3
Duration : 1 h 18 min
Bit rate mode : Constant
Bit rate : 224 kb/s
Channel(s) : 2 channels
Channel layout : L R
Sampling rate : 48.0 kHz
Frame rate : 31.250 FPS (1536 SPF)
Compression mode : Lossy
Stream size : 125 MiB (3%)
Language : Spanish
Service kind : Complete Main
Default : Yes
Forced : No

Text
ID : 3
Format : UTF-8
Codec ID : S_TEXT/UTF8
Codec ID/Info : UTF-8 Plain Text
Duration : 1 h 14 min
Bit rate : 77 b/s
Count of elements : 1340
Stream size : 41.9 KiB (0%)
Title : English
Language : English
Default : No
Forced : No






The.Wandering.Soap.Opera.2017.SPANISH.1080p.AMZN.WEBRip.DDP2.0.x264-NOGRP.torrent
还没有人收藏过本帖~
最新回复 (0)
返回