如资源无法下载,请在「交流」反馈!

[更 早][其他][爱情][BD-4K]真实罗曼史/浪漫风暴 True.Romance.1993.DC.2160p.BluRay.x265.10bit.SDR.DTS-HD.MA.5.1-SWTYBL


帖子完整标题:真实罗曼史/浪漫风暴 True.Romance.1993.DC.2160p.BluRay.x265.10bit.SDR.DTS-HD.MA.5.1-SWTYBLZ 55.74GB



◎译  名 真实罗曼史/浪漫风暴(港)/绝命大煞星(台)/致命浪漫
◎片  名 True Romance
◎年  代 1993
◎产  地 美国,法国
◎类  别 爱情 / 惊悚 / 犯罪
◎语  言 英语,意大利语
◎上映日期 1993-09-10(美国) / 1993-11-03(法国)
◎豆瓣评分 8.1/10 from 11002 users
◎豆瓣链接 https://movie.douban.com/subject/1295324/
◎片  长 120分钟
◎导  演 托尼·斯科特 Tony Scott
◎编  剧 昆汀·塔伦蒂诺 Quentin Tarantino / 罗杰·阿夫瑞 Roger Avary
◎主  演 克里斯蒂安·史莱特 Christian Slater
      帕特丽夏·阿奎特 Patricia Arquette
      丹尼斯·霍珀 Dennis Hopper
      方·基默 Val Kilmer
      加里·奥德曼 Gary Oldman
      布拉德·皮特 Brad Pitt
      克里斯托弗·沃肯 Christopher Walken
      布隆森·皮诺切特 Bronson Pinchot
      塞缪尔·杰克逊 Samuel L. Jackson
      迈克尔·拉帕波特 Michael Rapaport
      绍尔·鲁宾内克 Saul Rubinek
      康查塔·费雷尔 Conchata Ferrell
      詹姆斯·甘多菲尼 James Gandolfini
      安娜·莱文 Anna Levine
      维克多·阿尔果 Victor Argo
      保罗·贝茨 Paul Bates
      克里斯·潘 Chris Penn
      汤姆·塞兹摩尔 Tom Sizemore
      玛丽亚·皮提罗 Maria Pitillo
      弗兰克·阿多尼斯 Frank Adonis
      凯文·考利甘 Kevin Corrigan
      保罗·本-维克托 Paul Ben-Victor
      迈克尔·比奇 Michael Beach
      乔·达安格里奥 Joe D'Angerio
      约翰·塞纳迭姆博 John Cenatiempo
      艾瑞克·阿兰·克拉默 Eric Allan Kramer
      Patrick John Hurley Patrick John Hurley
      Dennis Garber Dennis Garber
      劳伦斯·梅森 Laurence Mason
      Adam Boster Adam Boster
       April Freeman
      埃德·劳特尔 Ed Lauter

◎标  签 美国 | 犯罪 | 昆汀·塔伦蒂诺 | 爱情 | QuentinTarantino | 1993 | 美国电影 | 昆汀

◎简  介

  漫画店打工仔Clarence Worley(克里斯汀·史莱特 Christian Slater 饰)生日的时候,在电影院邂逅了美女Alabama Whitman (帕特丽夏·阿奎特 Patricia Arquette 饰),两人一夜春宵。第二天,Alabama告诉Cla rence她是个妓女,是Clarence的老板送给他的生日礼物,但她爱上了他。Clarence决定将Alabama从皮条客Drexl Spivey(加里·奥德曼 Gary Oldman 饰)手中拯救出来。夜总会的一阵混战后,Clarence开枪将Drexl杀死,并拿走了一个他以为属于Alabama的手提箱。后来两人发现,手提箱里竟有大量可卡因。两人欣喜若狂,开始流浪,寻找将可卡因换成现金的机会。两人一路来到了洛杉矶,找到了Clarence的老友Dick Ritchie(迈克尔·拉帕波特 Michael Rapaport 饰)。Dick是个在好莱坞混迹的演员,他把一位能转手可卡因的导演Lee介绍给二人。而另一边,被Drexl偷走了大量可卡因的黑帮老大Vincenzo Coccotti(克里斯托弗·沃肯 Christopher Walken 饰)也带着一帮人开始寻找两人的踪迹。一场场大战即将上演,到底这对恋人的罗曼史能否延续下去?

Video
ID : 1
Format : HEVC
Format/Info : High Efficiency Video Coding
Format profile : Main [email protected]@High
Codec ID : V_MPEGH/ISO/HEVC
Duration : 2 h 0 min
Bit rate : 62.5 Mb/s
Width : 3 840 pixels
Height : 1 634 pixels
Display aspect ratio : 2.35:1
Frame rate mode : Constant
Frame rate : 23.976 (24000/1001/189150) FPS
Color space : YUV
Chroma subsampling : 4:2:0
Bit depth : 10 bits
Bits/(Pixel*Frame) : 0.416
Stream size : 52.8 GiB (95%)
Writing library : x265 3.0ed72af837053:[Windows][GCC 8.2.0][64 bit] 10bit
Encoding settings : cpuid=1111039 / frame-threads=6 / numa-pools=40 / wpp / no-pmode / no-pme / no-psnr / no-ssim / log-level=2 / input-csp=1 / input-res=3840x1634 / interlace=0 / total-frames=173917 / level-idc=51 / high-tier=1 / uhd-bd=0 / ref=3 / no-allow-non-conformance / repeat-headers / annexb / aud / hrd / info / hash=0 / no-temporal-layers / no-open-gop / min-keyint=1 / keyint=24 / gop-lookahead=0 / bframes=4 / b-adapt=2 / b-pyramid / bframe-bias=0 / rc-lookahead=25 / lookahead-slices=4 / scenecut=40 / radl=0 / no-splice / no-intra-refresh / ctu=64 / min-cu-size=8 / no-rect / no-amp / max-tu-size=32 / tu-inter-depth=1 / tu-intra-depth=1 / limit-tu=0 / rdoq-level=0 / dynamic-rd=0.00 / no-ssim-rd / signhide / no-tskip / nr-intra=0 / nr-inter=0 / no-constrained-intra / strong-intra-smoothing / max-merge=2 / limit-refs=3 / no-limit-modes / me=1 / subme=2 / merange=57 / temporal-mvp / weightp / no-weightb / no-analyze-src-pics / deblock=0:0 / no-sao / no-sao-non-deblock / rd=3 / no-early-skip / rskip / no-fast-intra / no-tskip-fast / no-cu-lossless / no-b-intra / no-splitrd-skip / rdpenalty=0 / psy-rd=2.00 / psy-rdoq=0.00 / no-rd-refine / no-lossless / cbqpoffs=0 / crqpoffs=0 / rc=crf / crf=16.0 / qcomp=0.60 / qpstep=4 / stats-write=0 / stats-read=0 / vbv-maxrate=160000 / vbv-bufsize=160000 / vbv-init=0.9 / crf-max=0.0 / crf-min=0.0 / ipratio=1.40 / pbratio=1.30 / aq-mode=1 / aq-strength=1.00 / cutree / zone-count=0 / no-strict-cbr / qg-size=32 / no-rc-grain / qpmax=69 / qpmin=0 / no-const-vbv / sar=1 / overscan=0 / videoformat=5 / range=0 / colorprim=2 / transfer=2 / colormatrix=2 / chromaloc=0 / display-window=0 / max-cll=0,0 / min-luma=0 / max-luma=1023 / log2-max-poc-lsb=8 / vui-timing-info / vui-hrd-info / slices=1 / opt-qp-pps / opt-ref-list-length-pps / no-multi-pass-opt-rps / scenecut-bias=0.05 / no-opt-cu-delta-qp / no-aq-motion / no-hdr / no-hdr-opt / no-dhdr10-opt / no-idr-recovery-sei / analysis-reuse-level=5 / scale-factor=0 / refine-intra=0 / refine-inter=0 / refine-mv=0 / refine-ctu-distortion=0 / no-limit-sao / ctu-info=0 / no-lowpass-dct / refine-analysis-type=0 / copy-pic=1 / max-ausize-factor=1.0 / no-dynamic-refine / no-single-sei / no-hevc-aq / qp-adaptation-range=1.00
Default : Yes
Forced : No

Audio #1
ID : 2
ID in the original source medium : 4352 (0x1100)
Format : DTS XLL
Format/Info : Digital Theater Systems
Commercial name : DTS-HD Master Audio
Codec ID : A_DTS
Duration : 2 h 0 min
Bit rate mode : Variable
Bit rate : 2 546 kb/s
Channel(s) : 6 channels
Channel layout : C L R Ls Rs LFE
Sampling rate : 48.0 kHz
Frame rate : 93.750 FPS (512 SPF)
Bit depth : 24 bits
Compression mode : Lossless
Stream size : 2.15 GiB (4%)
Title : DTS-HD MA 5.1
Language : English
Default : Yes
Forced : No
Original source medium : Blu-ray

Audio #2
ID : 3
Format : AC-3
Format/Info : Audio Coding 3
Commercial name : Dolby Digital
Codec ID : A_AC3
Duration : 2 h 0 min
Bit rate mode : Constant
Bit rate : 640 kb/s
Channel(s) : 6 channels
Channel layout : L R C LFE Ls Rs
Sampling rate : 48.0 kHz
Frame rate : 31.250 FPS (1536 SPF)
Compression mode : Lossy
Stream size : 553 MiB (1%)
Title : DD 5.1
Language : English
Service kind : Complete Main
Default : No
Forced : No

Text #1
ID : 4
Format : UTF-8
Codec ID : S_TEXT/UTF8
Codec ID/Info : UTF-8 Plain Text
Duration : 1 h 59 min
Bit rate : 77 b/s
Count of elements : 1665
Stream size : 67.8 KiB (0%)
Title : English-SRT
Language : English
Default : No
Forced : No

Text #2
ID : 5
ID in the original source medium : 4768 (0x12A0)
Format : PGS
Muxing mode : zlib
Codec ID : S_HDMV/PGS
Codec ID/Info : Picture based subtitle format used on BDs/HD-DVDs
Duration : 1 h 59 min
Bit rate : 49.5 kb/s
Count of elements : 3480
Stream size : 42.4 MiB (0%)
Title : English-PGS
Language : English
Default : No
Forced : No
Original source medium : Blu-ray

Menu
00:00:00.000 : Chapter 01
00:08:45.942 : Chapter 02
00:19:06.353 : Chapter 03
00:32:21.981 : Chapter 04
00:40:27.258 : Chapter 05
00:47:38.856 : Chapter 06
00:58:26.336 : Chapter 07
01:13:10.386 : Chapter 08
01:23:41.307 : Chapter 09
01:33:48.706 : Chapter 10
01:42:56.461 : Chapter 11
01:54:16.057 : Chapter 12
02:00:36.437 : Chapter 13






True.Romance.1993.DC.2160p.BluRay.x265.10bit.SDR.DTS-HD.MA.5.1-SWTYBLZ.torrent
还没有人收藏过本帖~
最新回复 (0)
返回