如资源无法下载,请在「交流」反馈!

[更 早][其他][剧情][WEB-1080P]瓦伦汀 Valentin.2002.SPANISH.ENSUBBED.1080p.AMZN.WEBRip.DDP5.1.x264-SymBiOTes 5.75G


帖子完整标题:瓦伦汀 Valentin.2002.SPANISH.ENSUBBED.1080p.AMZN.WEBRip.DDP5.1.x264-SymBiOTes 5.75GB



◎译  名 瓦伦汀/Valentín/情人
◎片  名 El sue?o de Valentín
◎年  代 2002
◎产  地 阿根廷,法国,意大利,荷兰,西班牙
◎类  别 剧情
◎语  言 西班牙语
◎上映日期 2003-01-15
◎豆瓣评分 8.2/10 from 182 users
◎豆瓣链接 https://movie.douban.com/subject/1420005/
◎片  长 86 分钟
◎导  演 亚历杭德罗·阿格雷斯蒂 Alejandro Agresti
◎编  剧 亚历杭德罗·阿格雷斯蒂 Alejandro Agresti
◎主  演 卡门·毛拉 Carmen Maura
      朱丽叶塔·卡迪纳利 Julieta Cardinali
      罗德里戈·诺雅 Rodrigo Noya
      Lorenzo Quinteros Lorenzo Quinteros
      亚历杭德罗·阿格雷斯蒂 Alejandro Agresti
       Stéfano Di Gregorio
      Mex Urtizberea Mex Urtizberea
      Carlos Roffé Carlos Roffé
      吉安·皮埃尔·诺厄尔 Jean Pierre Noher
      Juan Cruz Bordeu Juan Cruz Bordeu
      Marina Glezer Marina Glezer

◎标  签 阿根廷 | 阿根廷电影 | 孩子 | 拉美 | 西班牙 | 儿童 | 拉美电影 | 剧情

◎简  介

  瓦伦丁(罗德里戈·诺雅 Rodrigo Noya 饰)是一个8岁的可爱男孩,他成长在一个破碎的家庭之中,和祖母(卡门·毛拉 Carmen Maura 饰)过着相依为命的生活。瓦伦丁的父亲是一个名副其实的花花公子,总是不停的更换着身边的女伴,这一次,一个名叫蕾蒂西亚(朱丽叶塔·卡迪纳利 Julieta Cardinali 饰)的女人成为了瓦伦丁父亲的新任,蕾蒂西亚非常的友善,和瓦伦丁之间的关系很要好。
  
  后来,蕾蒂西亚和瓦伦丁的父亲分手了,但是她和瓦伦丁之间的来往却并没有断绝。蕾蒂西亚经常带着瓦伦丁去吃饭、看电影,而瓦伦丁也总喜欢将自己的所思所想向蕾蒂西亚倾诉。

Video
ID : 1
Format : AVC
Format/Info : Advanced Video Codec
Format profile : [email protected]
Format settings : CABAC / 4 Ref Frames
Format settings, CABAC : Yes
Format settings, Reference frames : 4 frames
Codec ID : V_MPEG4/ISO/AVC
Duration : 1 h 22 min
Bit rate mode : Constant
Bit rate : 9 294 kb/s
Nominal bit rate : 10 000 kb/s
Width : 1 920 pixels
Height : 1 080 pixels
Display aspect ratio : 16:9
Frame rate mode : Constant
Frame rate : 24.000 FPS
Color space : YUV
Chroma subsampling : 4:2:0
Bit depth : 8 bits
Scan type : Progressive
Bits/(Pixel*Frame) : 0.187
Stream size : 5.38 GiB (94%)
Default : Yes
Forced : No
Color range : Limited
Color primaries : BT.709
Transfer characteristics : BT.709
Matrix coefficients : BT.709

Audio
ID : 2
Format : E-AC-3
Format/Info : Enhanced AC-3
Commercial name : Dolby Digital Plus
Codec ID : A_EAC3
Duration : 1 h 22 min
Bit rate mode : Constant
Bit rate : 640 kb/s
Channel(s) : 6 channels
Channel layout : L R C LFE Ls Rs
Sampling rate : 48.0 kHz
Frame rate : 31.250 FPS (1536 SPF)
Compression mode : Lossy
Stream size : 379 MiB (6%)
Language : Spanish
Service kind : Complete Main
Default : Yes
Forced : No






Valentin.2002.SPANISH.ENSUBBED.1080p.AMZN.WEBRip.DDP5.1.x264-SymBiOTes.torrent
还没有人收藏过本帖~
最新回复 (0)
返回