如资源无法下载,请在「交流」反馈!

[2009][其他][喜剧][BD-1080P]仲夏之爱 A.Midsummer.of.Love.2009.SWEDISH.1080p.BluRay.x264.DD5.1-HANDJOB 8.12GB


帖子完整标题:仲夏之爱 A.Midsummer.of.Love.2009.SWEDISH.1080p.BluRay.x264.DD5.1-HANDJOB 8.12GB



◎译  名 仲夏之爱/A Midsummer of Love
◎片  名 Sommaren med G?ran - En midsommarnattskomedi
◎年  代 2009
◎产  地 瑞典
◎类  别 喜剧
◎语  言 瑞典语
◎上映日期 2009-07-31
◎豆瓣评分 /10 from 0 users
◎豆瓣链接 https://movie.douban.com/subject/5179650/
◎片  长 97分钟
◎编  剧 彼得·马格努森 Peter Magnusson
◎主  演 彼得·马格努森 Peter Magnusson
      大卫·埃伦斯 David Hellenius
      Mirja Turestedt Mirja Turestedt
      莫娅·甘默尔 Moa Gammel
      亚历山德拉·拉帕波特 Alexandra Rapaport
      彼得·达勒 Peter Dalle
       Christine Meltzer
       Tanja Lorentzon
      Dan Ekborg Dan Ekborg
      鲁斯.维嘉.费尔南德茨 Ruth Vega Fernandez
      Niklas Engdahl Niklas Engdahl
      Puck Ahlsell Puck Ahlsell
      Martin Timell Martin Timell
      Anette Stenson-Fjordefalk Anette Stenson-Fjordefalk
      Markoolio Markoolio

◎标  签 瑞典 | 喜剧 | 北欧 | 电影 | 爱情 | 剧情 | 2009 | 阿道夫

◎简  介

  美丽的瑞典正值炎炎夏日。刚刚被前女友甩掉的戈兰准备开始寻觅自己的梦中情人。他不是很适应自己的工作环境,在同事圈中总显得有些格格不入。他不像自己的好朋友那样,可以将就着找个一般女孩。为了找到一位完美情人,他专门乘帆远航,来到充满诱惑的瑞典群岛。就在一个灯火通明的仲夏之夜,爱神悄然而至。故事即将在浪漫,愉快的气氛之下展开……

Video
ID : 1
Format : AVC
Format/Info : Advanced Video Codec
Format profile : [email protected]
Format settings : CABAC / 4 Ref Frames
Format settings, CABAC : Yes
Format settings, Reference frames : 4 frames
Codec ID : V_MPEG4/ISO/AVC
Duration : 1 h 36 min
Bit rate : 11.5 Mb/s
Width : 1 916 pixels
Height : 1 036 pixels
Display aspect ratio : 1.85:1
Frame rate mode : Constant
Frame rate : 24.000 FPS
Color space : YUV
Chroma subsampling : 4:2:0
Bit depth : 8 bits
Scan type : Progressive
Bits/(Pixel*Frame) : 0.241
Stream size : 7.78 GiB (96%)
Writing library : x264 core 157 r2935 545de2f
Encoding settings : cabac=1 / ref=4 / deblock=1:-3:-3 / analyse=0x3:0x133 / me=umh / subme=10 / psy=1 / psy_rd=1.00:0.00 / mixed_ref=1 / me_range=32 / chroma_me=1 / trellis=2 / 8x8dct=1 / cqm=0 / deadzone=21,11 / fast_pskip=0 / chroma_qp_offset=-2 / threads=32 / lookahead_threads=8 / sliced_threads=0 / nr=0 / decimate=0 / interlaced=0 / bluray_compat=0 / constrained_intra=0 / bframes=16 / b_pyramid=2 / b_adapt=2 / b_bias=0 / direct=3 / weightb=1 / open_gop=0 / weightp=2 / keyint=240 / keyint_min=24 / scenecut=40 / intra_refresh=0 / rc_lookahead=60 / rc=crf / mbtree=0 / crf=20.5 / qcomp=0.60 / qpmin=0 / qpmax=69 / qpstep=4 / vbv_maxrate=62500 / vbv_bufsize=78125 / crf_max=0.0 / nal_hrd=none / filler=0 / ip_ratio=1.40 / pb_ratio=1.30 / aq=2:1.00
Default : Yes
Forced : No
Color range : Limited
Color primaries : BT.709
Transfer characteristics : BT.709
Matrix coefficients : BT.709

Audio
ID : 2
Format : AC-3
Format/Info : Audio Coding 3
Commercial name : Dolby Digital
Codec ID : A_AC3
Duration : 1 h 37 min
Bit rate mode : Constant
Bit rate : 448 kb/s
Channel(s) : 6 channels
Channel layout : L R C LFE Ls Rs
Sampling rate : 48.0 kHz
Frame rate : 31.250 FPS (1536 SPF)
Compression mode : Lossy
Stream size : 314 MiB (4%)
Language : Swedish
Service kind : Complete Main
Default : Yes
Forced : No

Text #1
ID : 3
Format : UTF-8
Codec ID : S_TEXT/UTF8
Codec ID/Info : UTF-8 Plain Text
Duration : 1 h 32 min
Bit rate : 52 b/s
Count of elements : 867
Stream size : 35.2 KiB (0%)
Language : English
Default : Yes
Forced : No

Text #2
ID : 4
Format : PGS
Muxing mode : zlib
Codec ID : S_HDMV/PGS
Codec ID/Info : Picture based subtitle format used on BDs/HD-DVDs
Duration : 1 h 35 min
Bit rate : 28.2 kb/s
Count of elements : 1806
Stream size : 19.2 MiB (0%)
Language : Danish
Default : No
Forced : No

Text #3
ID : 5
Format : PGS
Muxing mode : zlib
Codec ID : S_HDMV/PGS
Codec ID/Info : Picture based subtitle format used on BDs/HD-DVDs
Duration : 1 h 35 min
Bit rate : 27.1 kb/s
Count of elements : 1804
Stream size : 18.5 MiB (0%)
Language : Finnish
Default : No
Forced : No

Text #4
ID : 6
Format : PGS
Muxing mode : zlib
Codec ID : S_HDMV/PGS
Codec ID/Info : Picture based subtitle format used on BDs/HD-DVDs
Duration : 1 h 35 min
Bit rate : 27.4 kb/s
Count of elements : 1806
Stream size : 18.7 MiB (0%)
Language : Norwegian
Default : No
Forced : No

Text #5
ID : 7
Format : PGS
Muxing mode : zlib
Codec ID : S_HDMV/PGS
Codec ID/Info : Picture based subtitle format used on BDs/HD-DVDs
Duration : 1 h 16 min
Bit rate : 157 b/s
Count of elements : 8
Stream size : 87.6 KiB (0%)
Language : Swedish
Default : No
Forced : No

Text #6
ID : 8
Format : PGS
Muxing mode : zlib
Codec ID : S_HDMV/PGS
Codec ID/Info : Picture based subtitle format used on BDs/HD-DVDs
Duration : 1 h 35 min
Bit rate : 28.4 kb/s
Count of elements : 1832
Stream size : 19.3 MiB (0%)
Title : SDH
Language : Swedish
Default : No
Forced : No

Menu
00:00:00.000 : :Chapter 1
00:10:00.083 : :Chapter 2
00:20:00.042 : :Chapter 3
00:30:00.042 : :Chapter 4
00:40:00.000 : :Chapter 5
00:50:00.000 : :Chapter 6
01:00:00.042 : :Chapter 7
01:10:00.083 : :Chapter 8
01:20:00.083 : :Chapter 9
01:30:00.000 : :Chapter 10






A.Midsummer.of.Love.2009.SWEDISH.1080p.BluRay.x264.DD5.1-HANDJOB.torrent
还没有人收藏过本帖~
最新回复 (0)
返回