如资源无法下载,请在「交流」反馈!

[2011][其他][喜剧][BD-1080P]阿根廷超级德比/欲望决胜点 Superclasico.2011.DANISH.1080p.BluRay.x264.DD5.1-HANDJOB 8.32GB


帖子完整标题:阿根廷超级德比/欲望决胜点 Superclasico.2011.DANISH.1080p.BluRay.x264.DD5.1-HANDJOB 8.32GB



◎译  名 阿根廷超级德比/欲望决胜点(台)/超级德比
◎片  名 SuperClásico
◎年  代 2011
◎产  地 丹麦
◎类  别 喜剧
◎语  言 丹麦语,西班牙语,英语
◎上映日期 2011-03-17
◎豆瓣评分 7.1/10 from 90 users
◎豆瓣链接 https://movie.douban.com/subject/5155494/
◎片  长 99分钟
◎导  演 欧尔·克利斯汀·梅森 Ole Christian Madsen
◎编  剧 欧尔·克利斯汀·梅森 Ole Christian Madsen
◎主  演 安德斯·帕瑟森 Anders W. Berthelsen
      Jamie Morton Jamie Morton
      帕普丽卡·斯汀 Paprika Steen
      Sebastián Estevanez Sebastián Estevanez

◎标  签 丹麦 | 丹麦电影 | 喜剧 | 足球 | 第84届奥斯卡 | 2011 | 剧情 | 电影

◎简  介

  生意失败、老婆又跑到南美,跟当红足球明星打得火热,失意的酒商于是带著青春期儿子绕过大半个地球,从丹麦到阿根廷,儿子很快发展出自己的恋情,做老爸的看著老婆与情人双宿双飞,思考自己人生到底败在那里。
  
  这似乎是个合乎时令的「气候变迁」悲喜剧,从冰冷阴郁的丹麦到热情洋溢的阿根廷──美酒、足球、探戈、火辣的性爱──所有你想得到、关于这两个国家文化差异的真实与刻板印象,玩弄得淋漓尽致,这么大闹一场(其实不只一场)后,主角们对于生命与爱情也必然有新的见解。但导演自然意识到自己把玩了太多的老梗,于是有意无意间还是要祭出些惊奇,免得尽入俗套。于是我们愉快地跟著去阿根廷渡了个假,无须承担主人公的苦恼,不管结局是出于意外还是预期,都不算亏了,不是吗?

Video
ID : 1
Format : AVC
Format/Info : Advanced Video Codec
Format profile : [email protected]
Format settings : CABAC / 5 Ref Frames
Format settings, CABAC : Yes
Format settings, Reference frames : 5 frames
Codec ID : V_MPEG4/ISO/AVC
Duration : 1 h 37 min
Bit rate : 11.5 Mb/s
Width : 1 920 pixels
Height : 816 pixels
Display aspect ratio : 2.35:1
Frame rate mode : Constant
Frame rate : 24.000 FPS
Color space : YUV
Chroma subsampling : 4:2:0
Bit depth : 8 bits
Scan type : Progressive
Bits/(Pixel*Frame) : 0.306
Stream size : 7.86 GiB (94%)
Writing library : x264 core 157 r2935 545de2f
Encoding settings : cabac=1 / ref=5 / deblock=1:-3:-3 / analyse=0x3:0x133 / me=umh / subme=10 / psy=1 / psy_rd=1.00:0.00 / mixed_ref=1 / me_range=32 / chroma_me=1 / trellis=2 / 8x8dct=1 / cqm=0 / deadzone=21,11 / fast_pskip=0 / chroma_qp_offset=-2 / threads=25 / lookahead_threads=6 / sliced_threads=0 / nr=0 / decimate=0 / interlaced=0 / bluray_compat=0 / constrained_intra=0 / bframes=16 / b_pyramid=2 / b_adapt=2 / b_bias=0 / direct=3 / weightb=1 / open_gop=0 / weightp=2 / keyint=240 / keyint_min=24 / scenecut=40 / intra_refresh=0 / rc_lookahead=60 / rc=crf / mbtree=0 / crf=17.5 / qcomp=0.60 / qpmin=0 / qpmax=69 / qpstep=4 / vbv_maxrate=62500 / vbv_bufsize=78125 / crf_max=0.0 / nal_hrd=none / filler=0 / ip_ratio=1.40 / pb_ratio=1.30 / aq=2:1.00
Default : Yes
Forced : No
Color range : Limited
Color primaries : BT.709
Transfer characteristics : BT.709
Matrix coefficients : BT.709

Audio
ID : 2
Format : AC-3
Format/Info : Audio Coding 3
Commercial name : Dolby Digital
Codec ID : A_AC3
Duration : 1 h 37 min
Bit rate mode : Constant
Bit rate : 640 kb/s
Channel(s) : 6 channels
Channel layout : L R C LFE Ls Rs
Sampling rate : 48.0 kHz
Frame rate : 31.250 FPS (1536 SPF)
Compression mode : Lossy
Stream size : 447 MiB (5%)
Language : Danish
Service kind : Complete Main
Default : Yes
Forced : No

Text #1
ID : 3
Format : UTF-8
Codec ID : S_TEXT/UTF8
Codec ID/Info : UTF-8 Plain Text
Duration : 1 h 33 min
Bit rate : 48 b/s
Count of elements : 814
Stream size : 33.4 KiB (0%)
Language : English
Default : Yes
Forced : No

Text #2
ID : 4
Format : PGS
Muxing mode : zlib
Codec ID : S_HDMV/PGS
Codec ID/Info : Picture based subtitle format used on BDs/HD-DVDs
Duration : 1 h 27 min
Bit rate : 10.5 kb/s
Count of elements : 812
Stream size : 6.57 MiB (0%)
Language : Danish
Default : No
Forced : No

Text #3
ID : 5
Format : PGS
Muxing mode : zlib
Codec ID : S_HDMV/PGS
Codec ID/Info : Picture based subtitle format used on BDs/HD-DVDs
Duration : 1 h 37 min
Bit rate : 22.2 kb/s
Count of elements : 1666
Stream size : 15.5 MiB (0%)
Title : SDH
Language : Danish
Default : No
Forced : No

Text #4
ID : 6
Format : PGS
Muxing mode : zlib
Codec ID : S_HDMV/PGS
Codec ID/Info : Picture based subtitle format used on BDs/HD-DVDs
Duration : 1 h 31 min
Bit rate : 26.9 kb/s
Count of elements : 1672
Stream size : 17.6 MiB (0%)
Language : Norwegian
Default : No
Forced : No

Text #5
ID : 7
Format : PGS
Muxing mode : zlib
Codec ID : S_HDMV/PGS
Codec ID/Info : Picture based subtitle format used on BDs/HD-DVDs
Duration : 1 h 31 min
Bit rate : 27.4 kb/s
Count of elements : 1662
Stream size : 18.0 MiB (0%)
Language : Swedish
Default : No
Forced : No

Menu
00:00:00.000 : :Chapter 1
00:07:57.875 : :Chapter 2
00:15:43.542 : :Chapter 3
00:24:50.458 : :Chapter 4
00:33:46.083 : :Chapter 5
00:44:58.708 : :Chapter 6
00:52:08.458 : :Chapter 7
01:01:00.208 : :Chapter 8
01:08:11.750 : :Chapter 9
01:19:19.917 : :Chapter 10
01:27:06.125 : :Chapter 11
01:32:52.000 : :Chapter 12






Superclasico.2011.DANISH.1080p.BluRay.x264.DD5.1-HANDJOB.torrent
还没有人收藏过本帖~
最新回复 (0)
返回