如资源无法下载,请在「交流」反馈!

[2007][泰国][WEB-1080P]勇气/勇敢 Brave.2007.THAI.1080p.NF.WEBRip.AAC2.0.x264-RSG 3.23GB


帖子完整标题:勇气/勇敢 Brave.2007.THAI.1080p.NF.WEBRip.AAC2.0.x264-RSG 3.23GB



◎译  名 勇气/勇敢
◎片  名 ???????????
◎年  代 2007
◎产  地 泰国
◎类  别 
◎语  言 泰语
◎上映日期 2007-11-22
◎豆瓣评分 4.1/10 from 57 users
◎豆瓣链接 https://movie.douban.com/subject/2992768/
◎导  演 艾丽西娅·基斯 Afdlin Shauki
◎编  剧 Nut Nualpang Nut Nualpang
◎主  演 迪恩·亚历桑德罗 Dean Alexandrou
      艾丽西娅·基斯 Afdlin Shauki

◎标  签 泰国 | 动作 | 泰国电影 | 2007 | 电影 | 搞笑 | 喜剧 | 哈哈

◎简  介

  代号“B”的黑帮成员被组织逼迫去一个国际信用卡生产银行去盗取他们的秘密信息。他绑架了LITA的人质,并且逼迫她交出通行密码,然后将她绑架到他的住处。但是在回到住处后,B一直在为自己如此做是否正确苦恼:因为他的哥哥被组织绑架走,所以他才会去盗取机密,但是现在又良心发现,所以他决定要独自闯入组织救出自己的哥哥后去自首……

Video
ID : 1
Format : AVC
Format/Info : Advanced Video Codec
Format profile : [email protected]
Format settings : CABAC / 4 Ref Frames
Format settings, CABAC : Yes
Format settings, Reference frames : 4 frames
Format settings, GOP : M=4, N=50
Codec ID : V_MPEG4/ISO/AVC
Duration : 1 h 30 min
Bit rate mode : Constant
Bit rate : 5 000 kb/s
Width : 1 920 pixels
Height : 1 080 pixels
Display aspect ratio : 16:9
Frame rate mode : Constant
Frame rate : 25.000 FPS
Color space : YUV
Chroma subsampling : 4:2:0
Bit depth : 8 bits
Scan type : Progressive
Bits/(Pixel*Frame) : 0.096
Stream size : 3.15 GiB (97%)
Default : Yes
Forced : No

Audio
ID : 2
Format : AAC LC
Format/Info : Advanced Audio Codec Low Complexity
Codec ID : A_AAC-2
Duration : 1 h 30 min
Bit rate : 128 kb/s
Channel(s) : 2 channels
Channel layout : L R
Sampling rate : 48.0 kHz
Frame rate : 46.875 FPS (1024 SPF)
Compression mode : Lossy
Stream size : 82.9 MiB (3%)
Language : Thai
Default : Yes
Forced : No

Text
ID : 3
Format : UTF-8
Codec ID : S_TEXT/UTF8
Codec ID/Info : UTF-8 Plain Text
Duration : 1 h 27 min
Bit rate : 28 b/s
Count of elements : 667
Stream size : 17.9 KiB (0%)
Title : English DVD
Language : English
Default : No
Forced : No






Brave.2007.THAI.1080p.NF.WEBRip.AAC2.0.x264-RSG.torrent
还没有人收藏过本帖~
最新回复 (1)
返回