如资源无法下载,请在「交流」反馈!

[合 集][英国][喜剧][打包][BT下载][肥瑞的疯狂日记/My Mad Fat Diary 第一至三季][全03季][英语中字][MKV][1080P][片源]

已认证 q 1月前 146

◎译  名 肥瑞的疯狂日记/ 肥瑞的疯狂日记

◎片  名 My Mad Fat Diary

◎年  代 2013

◎产  地 英国

◎类  别 喜剧

◎语  言 英语

◎上映日期 2013-01-14

◎IMDb评分 8.4/10 from 13334 users

◎IMDb链接 http://www.imdb.com/title/tt2407574

◎豆瓣评分 8.8/10 from 9490 users

◎豆瓣链接 https://movie.douban.com/subject/20514845/

◎BT之家整理http://www.btbtt.us/

◎片  长 45分钟

◎导  演 Tim Kirkby / Benjamin Caron

◎编  剧 Tom Bidwell

◎主  演 莎朗·鲁妮 Sharon Rooney

      朱迪·科默 Jodie Comer

      尼克·迈瑞莱格伦 Nico Mirallegro

      丹·科恩 Dan Cohen

      乔丹·墨菲 Jordan Murphy

      席亚拉·巴克森德尔 Ciara Baxendale




◎简  介


  16岁的Rae Earl(莎朗·鲁妮 Sharon Rooney 饰)为人风趣,喜欢音乐。基本和普通这个年纪的女孩并没有什么不同。当然,除了,有那么一点胖。因为这一点,她常常给同学叫做“胖妹”,也因为这点,她有时很害怕和外界接触,总是独自呆在家里。有时还会因为 这个原因和独自抚养她长大的妈妈吵架。但这个胖姑娘还是和普通女孩一样,看到帅哥会犯花痴,遇到陌生人会有那么些尴尬。

最重要的问题是,Sharon刚从一个特殊的地方回家——精神病院。但她答应了自己和妈妈一切都会好起来,她要勇敢的对面生活的爱情。究竟这个胖妹会带来一段如何经常的生活日记呢?


Video
ID : 1
Format : AVC
Format/Info : Advanced Video Codec
Format profile : [email protected]
Format settings : CABAC / 4 Ref Frames
Format settings, CABAC : Yes
Format settings, ReFrames : 4 frames
Codec ID : V_MPEG4/ISO/AVC
Duration : 46 min 26 s
Bit rate : 6 194 kb/s
Width : 1 920 pixels
Height : 1 080 pixels
Display aspect ratio : 16:9
Frame rate mode : Constant
Frame rate : 25.000 FPS
Color space : YUV
Chroma subsampling : 4:2:0
Bit depth : 8 bits
Scan type : Progressive
Bits/(Pixel*Frame) : 0.119
Stream size : 2.01 GiB (93%)
Writing library : Zencoder Video Encoding System
Default : Yes
Forced : No
Color range : Limited
Color primaries : BT.709
Transfer characteristics : BT.709
Matrix coefficients : BT.709

Audio
ID : 2
Format : E-AC-3
Format/Info : Enhanced AC-3
Commercial name : Dolby Digital Plus
Codec ID : A_EAC3
Duration : 46 min 25 s
Bit rate mode : Constant
Bit rate : 448 kb/s
Channel(s) : 6 channels
Channel layout : L R C LFE Ls Rs
Sampling rate : 48.0 kHz
Frame rate : 31.250 FPS (1536 SPF)
Compression mode : Lossy
Stream size : 149 MiB (7%)
Language : English
Service kind : Complete Main
Default : Yes
Forced : No

Text
ID : 3
Format : UTF-8
Codec ID : S_TEXT/UTF8
Codec ID/Info : UTF-8 Plain Text
Duration : 45 min 26 s
Bit rate : 73 b/s
Count of elements : 749
Stream size : 24.6 KiB (0%)
Language : English
Default : No
Forced : No




My.Mad.Fat.Diary.S01.1080p.STAN.WEBRip.AAC2.0.x264-NTb[btbtt.me].torrent
My.Mad.Fat.Diary.S02.1080p.STAN.WEBRip.AAC2.0.x264-NTb[btbtt.me].torrent
My.Mad.Fat.Diary.S03.1080p.STAN.WEBRip.AAC2.0.x264-NTb[btbtt.me].torrent
还没有人收藏过本帖~
最新回复 (0)
返回
发新帖
即将对游客闭站,请注册账号备用!
影音屋为您提供最新的720P、1080P、2K、4K、原盘高清电影下载,内部交流社区,欢迎体验。影音屋,更多好电影待您发现!
加入福利电报群 加入福利企鹅群 淘宝天猫漏洞单