如资源无法下载,请在「交流」反馈!

[2017][其他][剧情][WEB-1080P]堤坝 Barrage.2017.FRENCH.1080p.AMZN.WEBRip.DDP2.0.x264-NOGRP 5.52GB


帖子完整标题:堤坝 Barrage.2017.FRENCH.1080p.AMZN.WEBRip.DDP2.0.x264-NOGRP 5.52GB



◎译  名 堤坝
◎片  名 Barrage
◎年  代 2017
◎产  地 卢森堡/法国/比利时
◎类  别 剧情
◎语  言 法语
◎上映日期 2017-02-10(柏林电影节)
◎豆瓣评分 6.5/10 from 155 users
◎豆瓣链接 https://movie.douban.com/subject/26826315/
◎片  长 112分钟
◎导  演 劳拉·施罗德 Laura Schroeder
◎编  剧 劳拉·施罗德 Laura Schroeder
◎主  演 洛丽塔·夏马 Lolita Chammah
      西弥斯·保罗斯 Themis Pauwels
      伊莎贝尔·于佩尔 Isabelle Huppert
      艾尔莎·霍本 Elsa Houben
      米歇尔·卡亚 Micha?l Kahya
      吕克·席尔茨 Luc Schiltz

◎标  签 法国 | 卢森堡 | IsabelleHuppert | 2017 | 于佩尔 | 柏林电影节 | 比利时 | 电影

◎简  介

  After ten years abroad, Catherine returns to Luxembourg to catch up with her daughter Alba, brought up by Catherine's mother Elisabeth. She then kidnaps Alba and takes her on a trip to a lake up North.

Video
ID : 1
Format : AVC
Format/Info : Advanced Video Codec
Format profile : [email protected]
Format settings : CABAC / 4 Ref Frames
Format settings, CABAC : Yes
Format settings, Reference frames : 4 frames
Codec ID : V_MPEG4/ISO/AVC
Duration : 1 h 34 min
Bit rate mode : Constant
Bit rate : 8 163 kb/s
Nominal bit rate : 10 000 kb/s
Width : 1 440 pixels
Height : 1 080 pixels
Display aspect ratio : 4:3
Frame rate mode : Constant
Frame rate : 24.000 FPS
Color space : YUV
Chroma subsampling : 4:2:0
Bit depth : 8 bits
Scan type : Progressive
Bits/(Pixel*Frame) : 0.219
Stream size : 5.37 GiB (97%)
Default : Yes
Forced : No
Color range : Limited
Color primaries : BT.709
Transfer characteristics : BT.709
Matrix coefficients : BT.709

Audio
ID : 2
Format : E-AC-3
Format/Info : Enhanced AC-3
Commercial name : Dolby Digital Plus
Codec ID : A_EAC3
Duration : 1 h 34 min
Bit rate mode : Constant
Bit rate : 224 kb/s
Channel(s) : 2 channels
Channel layout : L R
Sampling rate : 48.0 kHz
Frame rate : 31.250 FPS (1536 SPF)
Compression mode : Lossy
Stream size : 151 MiB (3%)
Language : French
Service kind : Complete Main
Default : Yes
Forced : No

Text #1
ID : 3
Format : UTF-8
Codec ID : S_TEXT/UTF8
Codec ID/Info : UTF-8 Plain Text
Duration : 1 h 26 min
Bit rate : 26 b/s
Count of elements : 609
Stream size : 16.8 KiB (0%)
Title : English
Language : English
Default : No
Forced : No

Text #2
ID : 4
Format : UTF-8
Codec ID : S_TEXT/UTF8
Codec ID/Info : UTF-8 Plain Text
Duration : 1 h 33 min
Bit rate : 24 b/s
Count of elements : 581
Stream size : 16.9 KiB (0%)
Title : Português (Brasil)
Language : Portuguese
Default : No
Forced : No






Barrage.2017.FRENCH.1080p.AMZN.WEBRip.DDP2.0.x264-NOGRP.torrent
还没有人收藏过本帖~
最新回复 (0)
返回
发新帖
即将对游客闭站,请注册账号备用!
影音屋为您提供最新的720P、1080P、2K、4K、原盘高清电影下载,内部交流社区,欢迎体验。影音屋,更多好电影待您发现!
加入福利电报群 加入福利企鹅群 淘宝天猫漏洞单