如资源无法下载,请在「交流」反馈!

[2020][其他][其他][WEB-1080P]难住猜谜者 Stump.the.Guesser.2020.1080p.AMZN.WEBRip.DDP2.0.x264-NOGRP 1.15GB


帖子完整标题:难住猜谜者 Stump.the.Guesser.2020.1080p.AMZN.WEBRip.DDP2.0.x264-NOGRP 1.15GB



◎译  名 难住猜谜者
◎片  名 Stump the Guesser
◎年  代 2020
◎产  地 加拿大
◎类  别 短片
◎语  言 英语
◎上映日期 2020-02-25(柏林电影节)
◎豆瓣评分 /10 from 0 users
◎豆瓣链接 https://movie.douban.com/subject/34951193/
◎片  长 19分钟
◎导  演 盖伊·马丁 Guy Maddin / 埃文·约翰逊 Evan Johnson / 加伦·约翰逊 Galen Johnson
◎编  剧 埃文·约翰逊 Evan Johnson / 加伦·约翰逊 Galen Johnson / 盖伊·马丁 Guy Maddin
◎主  演 Brent Neale
      Greg Klymkiw
      亚当·布鲁克斯 Adam Brooks

◎标  签 短片 | 加拿大 | 2020 | bisff2020 | GuyMaddin | 2020s | 北京国际短片联展 | 加拿大电影

◎简  介

  He works at the fairground as “Stump the Guesser”, who can guess anything for a fee. But suddenly his tricks stop working. And then he unwittingly falls in love with his sister whom he believed to be lost. He sets out to scientifically disprove the theory of heredity and marry his beloved as soon as possible. An absurdist firework of a silent film in black and white.

Video
ID : 1
Format : AVC
Format/Info : Advanced Video Codec
Format profile : [email protected]
Format settings : CABAC / 4 Ref Frames
Format settings, CABAC : Yes
Format settings, Reference frames : 4 frames
Codec ID : V_MPEG4/ISO/AVC
Duration : 19 min 28 s
Bit rate mode : Constant
Bit rate : 8 072 kb/s
Nominal bit rate : 10 000 kb/s
Width : 1 440 pixels
Height : 1 080 pixels
Display aspect ratio : 4:3
Frame rate mode : Constant
Frame rate : 24.000 FPS
Color space : YUV
Chroma subsampling : 4:2:0
Bit depth : 8 bits
Scan type : Progressive
Bits/(Pixel*Frame) : 0.216
Stream size : 1.10 GiB (95%)
Default : Yes
Forced : No
Color range : Limited
Color primaries : BT.709
Transfer characteristics : BT.709
Matrix coefficients : BT.709

Audio
ID : 2
Format : E-AC-3
Format/Info : Enhanced AC-3
Commercial name : Dolby Digital Plus
Codec ID : A_EAC3
Duration : 19 min 28 s
Bit rate mode : Constant
Bit rate : 224 kb/s
Channel(s) : 2 channels
Channel layout : L R
Sampling rate : 48.0 kHz
Frame rate : 31.250 FPS (1536 SPF)
Compression mode : Lossy
Stream size : 31.2 MiB (3%)
Language : English
Service kind : Complete Main
Default : Yes
Forced : No

Text #1
ID : 3
Format : UTF-8
Codec ID : S_TEXT/UTF8
Codec ID/Info : UTF-8 Plain Text
Title : Deutsch
Language : German
Default : No
Forced : No

Text #2
ID : 4
Format : UTF-8
Codec ID : S_TEXT/UTF8
Codec ID/Info : UTF-8 Plain Text
Title : Espa?ol
Language : Spanish
Default : No
Forced : No

Text #3
ID : 5
Format : UTF-8
Codec ID : S_TEXT/UTF8
Codec ID/Info : UTF-8 Plain Text
Title : Fran?ais
Language : French
Default : No
Forced : No

Text #4
ID : 6
Format : UTF-8
Codec ID : S_TEXT/UTF8
Codec ID/Info : UTF-8 Plain Text
Title : Italiano
Language : Italian
Default : No
Forced : No

Text #5
ID : 7
Format : UTF-8
Codec ID : S_TEXT/UTF8
Codec ID/Info : UTF-8 Plain Text
Title : Português (Brasil)
Language : Portuguese
Default : No
Forced : No

Text #6
ID : 8
Format : UTF-8
Codec ID : S_TEXT/UTF8
Codec ID/Info : UTF-8 Plain Text
Title : Türk?e
Language : Turkish
Default : No
Forced : No






Stump.the.Guesser.2020.1080p.AMZN.WEBRip.DDP2.0.x264-NOGRP.torrent
还没有人收藏过本帖~
最新回复 (0)
返回
发新帖
即将对游客闭站,请注册账号备用!
影音屋为您提供最新的720P、1080P、2K、4K、原盘高清电影下载,内部交流社区,欢迎体验。影音屋,更多好电影待您发现!
加入福利电报群 加入福利企鹅群 淘宝天猫漏洞单