如资源无法下载,请在「交流」反馈!

[2020][其他][其他][WEB-1080P]难住猜谜者 Stump.the.Guesser.2020.1080p.WEBRip.x264-RARBG 379.83MB


帖子完整标题:难住猜谜者 Stump.the.Guesser.2020.1080p.WEBRip.x264-RARBG 379.83MB



◎译  名 难住猜谜者
◎片  名 Stump the Guesser
◎年  代 2020
◎产  地 加拿大
◎类  别 短片
◎语  言 英语
◎上映日期 2020-02-25(柏林电影节)
◎豆瓣评分 /10 from 0 users
◎豆瓣链接 https://movie.douban.com/subject/34951193/
◎片  长 19分钟
◎导  演 盖伊·马丁 Guy Maddin / 埃文·约翰逊 Evan Johnson / 加伦·约翰逊 Galen Johnson
◎编  剧 埃文·约翰逊 Evan Johnson / 加伦·约翰逊 Galen Johnson / 盖伊·马丁 Guy Maddin
◎主  演 Brent Neale
      Greg Klymkiw
      亚当·布鲁克斯 Adam Brooks

◎标  签 短片 | 加拿大 | 2020 | bisff2020 | GuyMaddin | 2020s | 北京国际短片联展 | 加拿大电影

◎简  介

  He works at the fairground as “Stump the Guesser”, who can guess anything for a fee. But suddenly his tricks stop working. And then he unwittingly falls in love with his sister whom he believed to be lost. He sets out to scientifically disprove the theory of heredity and marry his beloved as soon as possible. An absurdist firework of a silent film in black and white.

Video
ID : 1
Format : AVC
Format/Info : Advanced Video Codec
Format profile : [email protected]
Format settings : CABAC / 4 Ref Frames
Format settings, CABAC : Yes
Format settings, Reference frames : 4 frames
Codec ID : avc1
Codec ID/Info : Advanced Video Coding
Duration : 19 min 28 s
Bit rate : 2 500 kb/s
Width : 1 440 pixels
Height : 1 080 pixels
Display aspect ratio : 4:3
Frame rate mode : Constant
Frame rate : 24.000 FPS
Color space : YUV
Chroma subsampling : 4:2:0
Bit depth : 8 bits
Scan type : Progressive
Bits/(Pixel*Frame) : 0.067
Stream size : 348 MiB (92%)
Writing library : x264 core 152 r2851M ba24899
Encoding settings : cabac=1 / ref=4 / deblock=1:-1:-1 / analyse=0x3:0x113 / me=umh / subme=9 / psy=1 / psy_rd=1.00:0.15 / mixed_ref=1 / me_range=24 / chroma_me=1 / trellis=2 / 8x8dct=1 / cqm=0 / deadzone=21,11 / fast_pskip=1 / chroma_qp_offset=-3 / threads=16 / lookahead_threads=4 / sliced_threads=0 / nr=0 / decimate=1 / interlaced=0 / bluray_compat=0 / constrained_intra=0 / bframes=3 / b_pyramid=2 / b_adapt=2 / b_bias=0 / direct=3 / weightb=1 / open_gop=0 / weightp=2 / keyint=250 / keyint_min=25 / scenecut=40 / intra_refresh=0 / rc_lookahead=50 / rc=2pass / mbtree=1 / bitrate=2500 / ratetol=1.0 / qcomp=0.60 / qpmin=0 / qpmax=69 / qpstep=4 / cplxblur=20.0 / qblur=0.5 / vbv_maxrate=31250 / vbv_bufsize=31250 / nal_hrd=none / filler=0 / ip_ratio=1.40 / aq=3:1.00
Encoded date : UTC 2021-06-19 09:20:30
Tagged date : UTC 2021-06-19 09:20:30
Codec configuration box : avcC

Audio
ID : 2
Format : AAC LC
Format/Info : Advanced Audio Codec Low Complexity
Codec ID : mp4a-40-2
Duration : 19 min 28 s
Duration_LastFrame : -11 ms
Bit rate mode : Constant
Bit rate : 224 kb/s
Channel(s) : 2 channels
Channel layout : L R
Sampling rate : 48.0 kHz
Frame rate : 46.875 FPS (1024 SPF)
Compression mode : Lossy
Stream size : 31.2 MiB (8%)
Language : English
Default : Yes
Alternate group : 1
Encoded date : UTC 2021-06-19 09:20:30
Tagged date : UTC 2021-06-19 09:20:30






Stump.the.Guesser.2020.1080p.WEBRip.x264-RARBG.torrent
还没有人收藏过本帖~
最新回复 (0)
返回