如资源无法下载,请在「交流」反馈!

[2020][欧美][其他][WEB-1080P]乐队男孩:从何而来 The.Boys.in.the.Band.Something.Personal.2020.1080p.WEBRip.x264-RARBG 5


帖子完整标题:乐队男孩:从何而来 The.Boys.in.the.Band.Something.Personal.2020.1080p.WEBRip.x264-RARBG 555.08MB



◎译  名 乐队男孩:从何而来/The Boys in the Band: Etwas Pers?nliches
◎片  名 The Boys in the Band: Something Personal
◎年  代 2020
◎产  地 美国
◎类  别 纪录片
◎语  言 英语
◎上映日期 2020-09-30(美国)
◎豆瓣评分 /10 from 0 users
◎豆瓣链接 https://movie.douban.com/subject/35222125/
◎片  长 28分钟
◎主  演 马特·波莫 Matt Bomer
      查尔斯·卡维尔 Charles Carver
      马尔特·克劳利 Mart Crowley
      罗宾·德·齐泽斯 Robin de Jesus
      布莱恩·胡奇森 Brian Hutchison
      奈德·马特尔 Ned Martel
      吉姆·帕森斯 Jim Parsons
      扎克瑞·昆图 Zachary Quinto
      安德鲁·兰内斯 Andrew Rannells
      迈克尔·本杰明·华盛顿 Michael Benjamin Washington
      塔克·霍金斯 Tuc Watkins

◎标  签 纪录片 | 美国 | 短片 | 2020 | 电影 | 幕后 | T-LGBTQ | TV

◎简  介

  Decades after his play first put gay life center stage, Mart Crowley joins the cast of the 2020 film to reflect on the story's enduring legacy.

Video
ID : 1
Format : AVC
Format/Info : Advanced Video Codec
Format profile : [email protected]
Format settings : CABAC / 4 Ref Frames
Format settings, CABAC : Yes
Format settings, Reference frames : 4 frames
Codec ID : avc1
Codec ID/Info : Advanced Video Coding
Duration : 28 min 21 s
Bit rate : 2 500 kb/s
Width : 1 920 pixels
Height : 1 080 pixels
Display aspect ratio : 16:9
Frame rate mode : Constant
Frame rate : 23.976 (23976/1000/189150) FPS
Color space : YUV
Chroma subsampling : 4:2:0
Bit depth : 8 bits
Scan type : Progressive
Bits/(Pixel*Frame) : 0.050
Stream size : 507 MiB (92%)
Writing library : x264 core 152 r2851M ba24899
Encoding settings : cabac=1 / ref=4 / deblock=1:-1:-1 / analyse=0x3:0x113 / me=umh / subme=9 / psy=1 / psy_rd=1.00:0.15 / mixed_ref=1 / me_range=24 / chroma_me=1 / trellis=2 / 8x8dct=1 / cqm=0 / deadzone=21,11 / fast_pskip=1 / chroma_qp_offset=-3 / threads=16 / lookahead_threads=4 / sliced_threads=0 / nr=0 / decimate=1 / interlaced=0 / bluray_compat=0 / constrained_intra=0 / bframes=3 / b_pyramid=2 / b_adapt=2 / b_bias=0 / direct=3 / weightb=1 / open_gop=0 / weightp=2 / keyint=250 / keyint_min=25 / scenecut=40 / intra_refresh=0 / rc_lookahead=50 / rc=2pass / mbtree=1 / bitrate=2500 / ratetol=1.0 / qcomp=0.60 / qpmin=0 / qpmax=69 / qpstep=4 / cplxblur=20.0 / qblur=0.5 / vbv_maxrate=31250 / vbv_bufsize=31250 / nal_hrd=none / filler=0 / ip_ratio=1.40 / aq=3:1.00
Encoded date : UTC 2021-06-19 09:34:37
Tagged date : UTC 2021-06-19 09:34:37
Codec configuration box : avcC

Audio
ID : 2
Format : AAC LC
Format/Info : Advanced Audio Codec Low Complexity
Codec ID : mp4a-40-2
Duration : 28 min 20 s
Duration_LastFrame : -11 ms
Bit rate mode : Constant
Bit rate : 224 kb/s
Channel(s) : 6 channels
Channel layout : C L R Ls Rs LFE
Sampling rate : 48.0 kHz
Frame rate : 46.875 FPS (1024 SPF)
Compression mode : Lossy
Stream size : 45.4 MiB (8%)
Language : English
Default : Yes
Alternate group : 1
Encoded date : UTC 2021-06-19 09:34:37
Tagged date : UTC 2021-06-19 09:34:37






The.Boys.in.the.Band.Something.Personal.2020.1080p.WEBRip.x264-RARBG.torrent
还没有人收藏过本帖~
最新回复 (0)
返回
发新帖
即将对游客闭站,请注册账号备用!
影音屋为您提供最新的720P、1080P、2K、4K、原盘高清电影下载,内部交流社区,欢迎体验。影音屋,更多好电影待您发现!
加入福利电报群 加入福利企鹅群 淘宝天猫漏洞单