如资源无法下载,请在「交流」反馈!

[更 早][欧美][恐怖][BD-Remux]不洁 The.Unholy.2021.1080p.BluRay.REMUX.AVC.DTS-HD.MA.5.1-FGT 25.13GB


帖子完整标题:不洁 The.Unholy.2021.1080p.BluRay.REMUX.AVC.DTS-HD.MA.5.1-FGT 25.13GB



◎译  名 不洁/Shrine/圣地/邪恶/邪恶玛利亚
◎片  名 The Unholy
◎年  代 2021
◎产  地 美国
◎类  别 恐怖
◎语  言 英语
◎上映日期 2021-04-02(美国)
◎豆瓣评分 5.1/10 from 1040 users
◎豆瓣链接 https://movie.douban.com/subject/30430743/
◎片  长 99分钟
◎导  演 埃文·斯彼里奥托普洛斯 Evan Spiliotopoulos
◎编  剧 詹姆斯·赫伯特 James Herbert / 埃文·斯彼里奥托普洛斯 Evan Spiliotopoulos
◎主  演 杰弗里·迪恩·摩根 Jeffrey Dean Morgan
      加利·艾尔维斯 Cary Elwes
      威廉姆·赛德勒 William Sadler
      克里克特·布朗 Cricket Brown
      凯蒂·阿赛尔顿 Katie Aselton
      迪奥戈·莫加多 Diogo Morgado
      克里斯蒂尼·亚当斯 Christine Adams
      玛丽娜·马泽帕 Marina Mazepa
      吉塞拉·奇佩 Gisela Chipe
      珍妮尔·费格利 Janelle Feigley
      比尔·索普 Bill Thorpe
      丹尼·柯伯 Danny Corbo
      达斯汀·塔克 Dustin Tucker
      塞莱斯特·奥利瓦 Celeste Oliva
      米尔·戴维斯 Mere Davis
      琪拉·皮查多 Kiara Pichardo
      桑尼·科尔博 Sonny Corbo
      迈克尔·施特劳斯 Michael Strauss
      斯蒂芬·奥尼尔·马丁 Stephen O'Neil Martin
      凯文·芬内西 Kevin Fennessy
      迈克·温特 Mike Wendt
      蒂姆·斯蒂罗兹 Tim Estiloz
      阿德里安·M·蒙波因特 Adrian M. Mompoint
      马特·索西亚 Matt Soscia
      乔丹娜·布鲁斯特 Jordana Brewster

◎标  签 恐怖 | 宗教 | 惊悚 | 美国 | 2021 | 悬疑 | 电影 | 欧美电影

◎简  介

  本片讲述一位听障女孩爱丽丝在圣母玛利亚的一次探视之后莫名其妙地恢复了视听功能,甚至还能给人治病。这一消息立刻传开,人们纷涌而至,感受奇迹,一位失了名声的记者(Jeffrey扮演)想要一探究竟并借此找回名声。随着可怕的事情一件件发生,他开始质疑这些现象是圣母玛利亚的“杰作”,还是更邪恶的存在?

Video
ID : 1
ID in the original source medium : 4113 (0x1011)
Format : AVC
Format/Info : Advanced Video Codec
Format profile : [email protected]
Format settings : CABAC / 2 Ref Frames
Format settings, CABAC : Yes
Format settings, Reference frames : 2 frames
Format settings, GOP : M=1, N=10
Codec ID : V_MPEG4/ISO/AVC
Duration : 1 h 39 min
Bit rate mode : Variable
Bit rate : 26.9 Mb/s
Width : 1 920 pixels
Height : 1 080 pixels
Display aspect ratio : 16:9
Frame rate mode : Constant
Frame rate : 23.976 (24000/1001/189150) FPS
Color space : YUV
Chroma subsampling : 4:2:0
Bit depth : 8 bits
Scan type : Progressive
Bits/(Pixel*Frame) : 0.540
Stream size : 18.7 GiB (74%)
Language : English
Default : No
Forced : No
Original source medium : Blu-ray

Audio #1
ID : 2
ID in the original source medium : 4352 (0x1100)
Format : DTS XLL
Format/Info : Digital Theater Systems
Commercial name : DTS-HD Master Audio
Codec ID : A_DTS
Duration : 1 h 39 min
Bit rate mode : Variable
Bit rate : 2 183 kb/s
Channel(s) : 6 channels
Channel layout : C L R Ls Rs LFE
Sampling rate : 48.0 kHz
Frame rate : 93.750 FPS (512 SPF)
Bit depth : 16 bits
Compression mode : Lossless
Stream size : 1.52 GiB (6%)
Title : DTS-HD MA 5.1
Language : English
Default : Yes
Forced : No
Original source medium : Blu-ray

Audio #2
ID : 3
ID in the original source medium : 4353 (0x1101)
Format : AC-3
Format/Info : Audio Coding 3
Commercial name : Dolby Digital
Codec ID : A_AC3
Duration : 1 h 39 min
Bit rate mode : Constant
Bit rate : 640 kb/s
Channel(s) : 6 channels
Channel layout : L R C LFE Ls Rs
Sampling rate : 48.0 kHz
Frame rate : 31.250 FPS (1536 SPF)
Compression mode : Lossy
Stream size : 455 MiB (2%)
Title : DD 5.1
Language : English
Service kind : Complete Main
Default : No
Forced : No
Original source medium : Blu-ray

Audio #3
ID : 4
ID in the original source medium : 4354 (0x1102)
Format : DTS XLL
Format/Info : Digital Theater Systems
Commercial name : DTS-HD Master Audio
Codec ID : A_DTS
Duration : 1 h 39 min
Bit rate mode : Variable
Bit rate : 2 186 kb/s
Channel(s) : 6 channels
Channel layout : C L R Ls Rs LFE
Sampling rate : 48.0 kHz
Frame rate : 93.750 FPS (512 SPF)
Bit depth : 16 bits
Compression mode : Lossless
Stream size : 1.52 GiB (6%)
Title : DTS-HD MA 5.1
Language : French
Default : No
Forced : No
Original source medium : Blu-ray

Audio #4
ID : 5
ID in the original source medium : 4355 (0x1103)
Format : AC-3
Format/Info : Audio Coding 3
Commercial name : Dolby Digital
Codec ID : A_AC3
Duration : 1 h 39 min
Bit rate mode : Constant
Bit rate : 640 kb/s
Channel(s) : 6 channels
Channel layout : L R C LFE Ls Rs
Sampling rate : 48.0 kHz
Frame rate : 31.250 FPS (1536 SPF)
Compression mode : Lossy
Stream size : 455 MiB (2%)
Title : DD 5.1
Language : Portuguese
Service kind : Complete Main
Default : No
Forced : No
Original source medium : Blu-ray

Audio #5
ID : 6
ID in the original source medium : 4356 (0x1104)
Format : AC-3
Format/Info : Audio Coding 3
Commercial name : Dolby Digital
Codec ID : A_AC3
Duration : 1 h 39 min
Bit rate mode : Constant
Bit rate : 640 kb/s
Channel(s) : 6 channels
Channel layout : L R C LFE Ls Rs
Sampling rate : 48.0 kHz
Frame rate : 31.250 FPS (1536 SPF)
Compression mode : Lossy
Stream size : 455 MiB (2%)
Title : DD 5.1
Language : Portuguese
Service kind : Complete Main
Default : No
Forced : No
Original source medium : Blu-ray

Audio #6
ID : 7
ID in the original source medium : 4357 (0x1105)
Format : DTS XLL
Format/Info : Digital Theater Systems
Commercial name : DTS-HD Master Audio
Codec ID : A_DTS
Duration : 1 h 39 min
Bit rate mode : Variable
Bit rate : 2 190 kb/s
Channel(s) : 6 channels
Channel layout : C L R Ls Rs LFE
Sampling rate : 48.0 kHz
Frame rate : 93.750 FPS (512 SPF)
Bit depth : 16 bits
Compression mode : Lossless
Stream size : 1.52 GiB (6%)
Title : DTS-HD MA 5.1
Language : Spanish
Default : No
Forced : No
Original source medium : Blu-ray

Audio #7
ID : 8
ID in the original source medium : 4358 (0x1106)
Format : AC-3
Format/Info : Audio Coding 3
Commercial name : Dolby Digital
Codec ID : A_AC3
Duration : 1 h 39 min
Bit rate mode : Constant
Bit rate : 640 kb/s
Channel(s) : 6 channels
Channel layout : L R C LFE Ls Rs
Sampling rate : 48.0 kHz
Frame rate : 31.250 FPS (1536 SPF)
Compression mode : Lossy
Stream size : 455 MiB (2%)
Title : DD 5.1
Language : Spanish
Service kind : Complete Main
Default : No
Forced : No
Original source medium : Blu-ray

Text #1
ID : 9
Format : UTF-8
Codec ID : S_TEXT/UTF8
Codec ID/Info : UTF-8 Plain Text
Duration : 1 h 30 min
Bit rate : 47 b/s
Count of elements : 955
Stream size : 31.5 KiB (0%)
Title : SRT
Language : English
Default : Yes
Forced : No

Text #2
ID : 10
ID in the original source medium : 4608 (0x1200)
Format : PGS
Muxing mode : zlib
Codec ID : S_HDMV/PGS
Codec ID/Info : Picture based subtitle format used on BDs/HD-DVDs
Duration : 1 h 31 min
Bit rate : 33.4 kb/s
Count of elements : 2240
Stream size : 22.0 MiB (0%)
Language : English
Default : No
Forced : No
Original source medium : Blu-ray

Text #3
ID : 11
ID in the original source medium : 4609 (0x1201)
Format : PGS
Muxing mode : zlib
Codec ID : S_HDMV/PGS
Codec ID/Info : Picture based subtitle format used on BDs/HD-DVDs
Duration : 1 h 30 min
Bit rate : 29.1 kb/s
Count of elements : 1892
Stream size : 18.9 MiB (0%)
Language : English
Default : No
Forced : No
Original source medium : Blu-ray

Text #4
ID : 12
ID in the original source medium : 4610 (0x1202)
Format : PGS
Muxing mode : zlib
Codec ID : S_HDMV/PGS
Codec ID/Info : Picture based subtitle format used on BDs/HD-DVDs
Duration : 1 h 31 min
Bit rate : 33.4 kb/s
Count of elements : 2240
Stream size : 22.0 MiB (0%)
Language : English
Default : No
Forced : No
Original source medium : Blu-ray

Text #5
ID : 13
ID in the original source medium : 4611 (0x1203)
Format : PGS
Muxing mode : zlib
Codec ID : S_HDMV/PGS
Codec ID/Info : Picture based subtitle format used on BDs/HD-DVDs
Duration : 1 h 30 min
Bit rate : 29.1 kb/s
Count of elements : 1892
Stream size : 18.9 MiB (0%)
Language : English
Default : No
Forced : No
Original source medium : Blu-ray

Text #6
ID : 14
ID in the original source medium : 4612 (0x1204)
Format : PGS
Muxing mode : zlib
Codec ID : S_HDMV/PGS
Codec ID/Info : Picture based subtitle format used on BDs/HD-DVDs
Duration : 1 h 38 min
Bit rate : 23.1 kb/s
Count of elements : 1964
Stream size : 16.2 MiB (0%)
Language : Chinese
Default : No
Forced : No
Original source medium : Blu-ray

Text #7
ID : 15
ID in the original source medium : 4613 (0x1205)
Format : PGS
Muxing mode : zlib
Codec ID : S_HDMV/PGS
Codec ID/Info : Picture based subtitle format used on BDs/HD-DVDs
Duration : 1 h 38 min
Bit rate : 24.4 kb/s
Count of elements : 1941
Stream size : 17.1 MiB (0%)
Language : Chinese
Default : No
Forced : No
Original source medium : Blu-ray

Text #8
ID : 16
ID in the original source medium : 4614 (0x1206)
Format : PGS
Muxing mode : zlib
Codec ID : S_HDMV/PGS
Codec ID/Info : Picture based subtitle format used on BDs/HD-DVDs
Duration : 1 h 37 min
Bit rate : 26.5 kb/s
Count of elements : 1877
Stream size : 18.5 MiB (0%)
Language : French
Default : No
Forced : No
Original source medium : Blu-ray

Text #9
ID : 17
ID in the original source medium : 4614 (0x1206)
Format : PGS
Muxing mode : zlib
Codec ID : S_HDMV/PGS
Codec ID/Info : Picture based subtitle format used on BDs/HD-DVDs
Duration : 1 h 36 min
Bit rate : 355 b/s
Count of elements : 18
Stream size : 252 KiB (0%)
Language : French
Default : No
Forced : No
Original source medium : Blu-ray

Text #10
ID : 18
ID in the original source medium : 4615 (0x1207)
Format : PGS
Muxing mode : zlib
Codec ID : S_HDMV/PGS
Codec ID/Info : Picture based subtitle format used on BDs/HD-DVDs
Duration : 1 h 38 min
Bit rate : 28.8 kb/s
Count of elements : 1958
Stream size : 20.3 MiB (0%)
Language : Indonesian
Default : No
Forced : No
Original source medium : Blu-ray

Text #11
ID : 19
ID in the original source medium : 4616 (0x1208)
Format : PGS
Muxing mode : zlib
Codec ID : S_HDMV/PGS
Codec ID/Info : Picture based subtitle format used on BDs/HD-DVDs
Duration : 1 h 38 min
Bit rate : 23.1 kb/s
Count of elements : 1963
Stream size : 16.3 MiB (0%)
Language : Korean
Default : No
Forced : No
Original source medium : Blu-ray

Text #12
ID : 20
ID in the original source medium : 4617 (0x1209)
Format : PGS
Muxing mode : zlib
Codec ID : S_HDMV/PGS
Codec ID/Info : Picture based subtitle format used on BDs/HD-DVDs
Duration : 1 h 38 min
Bit rate : 30.1 kb/s
Count of elements : 1970
Stream size : 21.2 MiB (0%)
Language : Malay
Default : No
Forced : No
Original source medium : Blu-ray

Text #13
ID : 21
ID in the original source medium : 4618 (0x120A)
Format : PGS
Muxing mode : zlib
Codec ID : S_HDMV/PGS
Codec ID/Info : Picture based subtitle format used on BDs/HD-DVDs
Duration : 1 h 38 min
Bit rate : 26.8 kb/s
Count of elements : 1913
Stream size : 18.9 MiB (0%)
Language : Portuguese
Default : No
Forced : No
Original source medium : Blu-ray

Text #14
ID : 22
ID in the original source medium : 4618 (0x120A)
Format : PGS
Muxing mode : zlib
Codec ID : S_HDMV/PGS
Codec ID/Info : Picture based subtitle format used on BDs/HD-DVDs
Duration : 1 h 37 min
Bit rate : 492 b/s
Count of elements : 33
Stream size : 351 KiB (0%)
Language : Portuguese
Default : No
Forced : No
Original source medium : Blu-ray

Text #15
ID : 23
ID in the original source medium : 4619 (0x120B)
Format : PGS
Muxing mode : zlib
Codec ID : S_HDMV/PGS
Codec ID/Info : Picture based subtitle format used on BDs/HD-DVDs
Duration : 1 h 38 min
Bit rate : 26.0 kb/s
Count of elements : 1896
Stream size : 18.3 MiB (0%)
Language : Spanish
Default : No
Forced : No
Original source medium : Blu-ray

Text #16
ID : 24
ID in the original source medium : 4619 (0x120B)
Format : PGS
Muxing mode : zlib
Codec ID : S_HDMV/PGS
Codec ID/Info : Picture based subtitle format used on BDs/HD-DVDs
Duration : 7 min 6 s
Bit rate : 2 057 b/s
Count of elements : 6
Stream size : 107 KiB (0%)
Language : Spanish
Default : No
Forced : No
Original source medium : Blu-ray

Text #17
ID : 25
ID in the original source medium : 4620 (0x120C)
Format : PGS
Muxing mode : zlib
Codec ID : S_HDMV/PGS
Codec ID/Info : Picture based subtitle format used on BDs/HD-DVDs
Duration : 1 h 37 min
Bit rate : 27.1 kb/s
Count of elements : 1931
Stream size : 18.9 MiB (0%)
Language : Spanish
Default : No
Forced : No
Original source medium : Blu-ray

Text #18
ID : 26
ID in the original source medium : 4620 (0x120C)
Format : PGS
Muxing mode : zlib
Codec ID : S_HDMV/PGS
Codec ID/Info : Picture based subtitle format used on BDs/HD-DVDs
Duration : 1 h 36 min
Bit rate : 225 b/s
Count of elements : 14
Stream size : 159 KiB (0%)
Language : Spanish
Default : No
Forced : No
Original source medium : Blu-ray

Text #19
ID : 27
ID in the original source medium : 4621 (0x120D)
Format : PGS
Muxing mode : zlib
Codec ID : S_HDMV/PGS
Codec ID/Info : Picture based subtitle format used on BDs/HD-DVDs
Duration : 1 h 38 min
Bit rate : 27.5 kb/s
Count of elements : 1988
Stream size : 19.4 MiB (0%)
Language : Thai
Default : No
Forced : No
Original source medium : Blu-ray

Menu
00:00:00.000 : Chapter 01
00:02:44.914 : Chapter 02
00:07:04.715 : Chapter 03
00:11:54.880 : Chapter 04
00:17:47.941 : Chapter 05
00:23:42.546 : Chapter 06
00:29:03.491 : Chapter 07
00:36:45.036 : Chapter 08
00:43:14.049 : Chapter 09
00:49:55.117 : Chapter 10
00:57:07.549 : Chapter 11
01:01:48.871 : Chapter 12
01:09:04.640 : Chapter 13
01:15:15.010 : Chapter 14
01:23:37.095 : Chapter 15
01:30:03.064 : Chapter 16






The.Unholy.2021.1080p.BluRay.REMUX.AVC.DTS-HD.MA.5.1-FGT.torrent
还没有人收藏过本帖~
最新回复 (0)
返回
发新帖
即将对游客闭站,请注册账号备用!
影音屋为您提供最新的720P、1080P、2K、4K、原盘高清电影下载,内部交流社区,欢迎体验。影音屋,更多好电影待您发现!
加入福利电报群 加入福利企鹅群 淘宝天猫漏洞单