如资源无法下载,请在「交流」反馈!

[2020][其他][惊悚][BD-1080P]人狼恶/狩猎追杀 Hunter.Hunter.2020.1080p.BluRay.x264.DTS-HD.MA.5.1-MT 9.64GB


帖子完整标题:人狼恶/狩猎追杀 Hunter.Hunter.2020.1080p.BluRay.x264.DTS-HD.MA.5.1-MT 9.64GB



◎译  名 人狼恶/狩猎追杀
◎片  名 Hunter Hunter
◎年  代 2020
◎产  地 加拿大,美国
◎类  别 惊悚 / 恐怖
◎语  言 英语
◎上映日期 2020-12-18(美国)
◎豆瓣评分 5.7/10 from 407 users
◎豆瓣链接 https://movie.douban.com/subject/35240766/
◎片  长 94分钟
◎导  演 肖恩·林登 Shawn Linden
◎编  剧 肖恩·林登 Shawn Linden
◎主  演 卡米尔·苏利文 Camille Sullivan
      Summer H. Howell
      戴文·萨瓦 Devon Sawa
      尼克·斯塔尔 Nick Stahl
      加布里埃尔·丹尼尔斯 Gabriel Daniels
      劳伦·科克伦 Lauren Cochrane
      杰德·迈克尔 Jade Michael
      埃里克·阿塔瓦尔 Erik Athavale
      卡尔·索达森 Karl Thordarson
      布莱克·泰勒 Blake Taylor
      萨拉·康斯提布尔 Sarah Constible

◎标  签 惊悚 | 血腥 | 犯罪 | 美国 | 2020 | 恐怖 | 剧情 | 人性

◎简  介

  猎人一家三口在森林里避世隐居,受到一只野狼的威胁。在搜捕这只狼的过程中,他们遭遇到了更为险恶的生物,一个专门残害女性的连环杀手.....

Video
ID : 1
Format : AVC
Format/Info : Advanced Video Codec
Format profile : [email protected]
Format settings : CABAC / 5 Ref Frames
Format settings, CABAC : Yes
Format settings, Reference frames : 5 frames
Codec ID : V_MPEG4/ISO/AVC
Duration : 1 h 33 min
Bit rate : 11.4 Mb/s
Width : 1 920 pixels
Height : 804 pixels
Display aspect ratio : 2.40:1
Frame rate mode : Constant
Frame rate : 23.976 (24000/1001/189150) FPS
Color space : YUV
Chroma subsampling : 4:2:0
Bit depth : 8 bits
Scan type : Progressive
Bits/(Pixel*Frame) : 0.309
Stream size : 7.43 GiB (77%)
Writing library : x264 core 157 r2938 2b00a84 [email protected] Mod
Encoding settings : cabac=1 / ref=5 / deblock=1:-3:-3 / analyse=0x3:0x133 / me=umh / subme=10 / psy=1 / psy_rd=1.05:0.00 / mixed_ref=1 / me_range=32 / chroma_me=1 / trellis=2 / 8x8dct=1 / cqm=0 / deadzone=21,11 / fast_pskip=0 / chroma_qp_offset=-2 / threads=12 / lookahead_threads=2 / sliced_threads=0 / nr=0 / decimate=0 / interlaced=0 / bluray_compat=0 / constrained_intra=0 / bframes=8 / b_pyramid=2 / b_adapt=2 / b_bias=0 / direct=3 / weightb=1 / open_gop=0 / weightp=2 / keyint=250 / keyint_min=24 / scenecut=40 / intra_refresh=0 / rc_lookahead=250 / rc=crf / mbtree=0 / crf=16.8 / qcomp=0.60 / qpmin=0 / qpmax=69 / qpstep=4 / vbv_maxrate=62500 / vbv_bufsize=78125 / crf_max=0.0 / nal_hrd=none / filler=0 / ip_ratio=1.30 / pb_ratio=1.20 / aq=3:0.80
Language : English
Default : Yes
Forced : No
Color range : Limited
Color primaries : BT.709
Matrix coefficients : BT.709

Audio
ID : 2
Format : DTS XLL
Format/Info : Digital Theater Systems
Commercial name : DTS-HD Master Audio
Codec ID : A_DTS
Duration : 1 h 33 min
Bit rate mode : Variable
Bit rate : 3 378 kb/s
Channel(s) : 6 channels
Channel layout : C L R Ls Rs LFE
Sampling rate : 48.0 kHz
Frame rate : 93.750 FPS (512 SPF)
Bit depth : 24 bits
Compression mode : Lossless
Stream size : 2.20 GiB (23%)
Language : English
Default : Yes
Forced : No

Text #1
ID : 3
Format : UTF-8
Codec ID : S_TEXT/UTF8
Codec ID/Info : UTF-8 Plain Text
Duration : 1 h 26 min
Bit rate : 31 b/s
Count of elements : 815
Stream size : 19.7 KiB (0%)
Title : SRT
Language : English
Default : Yes
Forced : No

Text #2
ID : 4
Format : PGS
Muxing mode : zlib
Codec ID : S_HDMV/PGS
Codec ID/Info : Picture based subtitle format used on BDs/HD-DVDs
Duration : 1 h 30 min
Bit rate : 22.5 kb/s
Count of elements : 1553
Stream size : 14.6 MiB (0%)
Language : English
Default : No
Forced : No

Menu
00:00:00.000 : Chapter 01
00:08:04.693 : Chapter 02
00:16:31.407 : Chapter 03
00:23:29.742 : Chapter 04
00:30:48.847 : Chapter 05
00:38:18.379 : Chapter 06
00:45:41.739 : Chapter 07
00:54:09.955 : Chapter 08
01:00:42.848 : Chapter 09
01:08:37.405 : Chapter 10
01:16:06.771 : Chapter 11
01:22:55.596 : Chapter 12






Hunter.Hunter.2020.1080p.BluRay.x264.DTS-HD.MA.5.1-MT.torrent
还没有人收藏过本帖~
最新回复 (0)
返回
发新帖
即将对游客闭站,请注册账号备用!
影音屋为您提供最新的720P、1080P、2K、4K、原盘高清电影下载,内部交流社区,欢迎体验。影音屋,更多好电影待您发现!
加入福利电报群 加入福利企鹅群 淘宝天猫漏洞单