如资源无法下载,请在「交流」反馈!

[更 早][欧美][剧情][WEB-1080P]设身处地 Adam.at.Six.A.M.1970.1080p.AMZN.WEBRip.DDP5.1.x264-ISA 7.41GB


帖子完整标题:设身处地 Adam.at.Six.A.M.1970.1080p.AMZN.WEBRip.DDP5.1.x264-ISA 7.41GB



◎译  名 设身处地/Adam at 6 A.M.
◎片  名 Adam at Six A.M.
◎年  代 1970
◎产  地 美国
◎类  别 剧情
◎语  言 英语
◎上映日期 1970
◎豆瓣评分 /10 from 0 users
◎豆瓣链接 https://movie.douban.com/subject/5056245/
◎片  长 100 分钟
◎导  演 Robert Scheerer
◎编  剧 Elinor Karpf / Steven Karpf
◎主  演 迈克尔·道格拉斯 Michael Douglas
      李·珀塞尔 Lee Purcell
      乔·唐·巴克 Joe Don Baker
      达纳·艾卡 Dana Elcar
      安妮·格温 Anne Gwynne
      Timothy Blake
      K.T. Stevens
      玛吉·雷德蒙德 Marge Redmond
      Pat Randall
      Del Monroe
      格雷格·约瑟夫 Greg Joseph
      梅格·福斯特 Meg Foster
      查尔斯·艾德曼 Charles Aidman
      Oren Curtis
      Carolyn Conwell
      Al Checco
      理查德·德尔 Richard Derr
      格雷森·豪尔 Grayson Hall
      汉娜·海尔泰伦迪 Hanna Hertelendy

◎标  签 被忽视的片子

◎简  介

  暂无相关剧情介绍

Video
ID : 1
Format : AVC
Format/Info : Advanced Video Codec
Format profile : [email protected]
Format settings : CABAC / 4 Ref Frames
Format settings, CABAC : Yes
Format settings, Reference frames : 4 frames
Codec ID : V_MPEG4/ISO/AVC
Duration : 1 h 40 min
Bit rate mode : Constant
Bit rate : 10 000 kb/s
Width : 1 920 pixels
Height : 1 080 pixels
Display aspect ratio : 16:9
Frame rate mode : Constant
Frame rate : 23.976 (24000/1001/189150) FPS
Color space : YUV
Chroma subsampling : 4:2:0
Bit depth : 8 bits
Scan type : Progressive
Bits/(Pixel*Frame) : 0.201
Stream size : 6.96 GiB (94%)
Default : Yes
Forced : No
Color range : Limited
Color primaries : BT.709
Transfer characteristics : BT.709
Matrix coefficients : BT.709

Audio
ID : 2
Format : E-AC-3
Format/Info : Enhanced AC-3
Commercial name : Dolby Digital Plus
Codec ID : A_EAC3
Duration : 1 h 40 min
Bit rate mode : Constant
Bit rate : 640 kb/s
Channel(s) : 6 channels
Channel layout : L R C LFE Ls Rs
Sampling rate : 48.0 kHz
Frame rate : 31.250 FPS (1536 SPF)
Compression mode : Lossy
Stream size : 460 MiB (6%)
Language : English
Service kind : Complete Main
Default : Yes
Forced : No

Text #1
ID : 3
Format : UTF-8
Codec ID : S_TEXT/UTF8
Codec ID/Info : UTF-8 Plain Text
Duration : 1 h 34 min
Bit rate : 46 b/s
Count of elements : 1105
Stream size : 32.2 KiB (0%)
Language : English
Default : No
Forced : No

Text #2
ID : 4
Format : UTF-8
Codec ID : S_TEXT/UTF8
Codec ID/Info : UTF-8 Plain Text
Duration : 1 h 36 min
Bit rate : 56 b/s
Count of elements : 1400
Stream size : 39.9 KiB (0%)
Title : SDH
Language : English
Default : No
Forced : No






Adam.at.Six.A.M.1970.1080p.AMZN.WEBRip.DDP5.1.x264-ISA.torrent
还没有人收藏过本帖~
最新回复 (0)
返回