如资源无法下载,请在「交流」反馈!

[2018][欧美][喜剧][WEB-1080P]家庭 Family.2018.1080p.AMZN.WEBRip.DDP5.1.x264-NWD 5.94GB


帖子完整标题:家庭 Family.2018.1080p.AMZN.WEBRip.DDP5.1.x264-NWD 5.94GB



◎译  名 家庭/Fam-i-ly/家庭帮
◎片  名 Family
◎年  代 2018
◎产  地 美国
◎类  别 喜剧
◎语  言 英语
◎上映日期 2019-04-19(美国)
◎IMDb评分 6.3/10 from 2233 users
◎IMDb链接 https://www.imdb.com/title/tt6268882/
◎豆瓣评分 6.6/10 from 321 users
◎豆瓣链接 https://movie.douban.com/subject/26961744/
◎片  长 83分钟
◎导  演 劳拉·司登利 Laura Steinel
◎编  剧 劳拉·司登利 Laura Steinel
◎主  演 泰勒·席林 Taylor Schilling
      吉莉恩·贝尔 Jillian Bell
      胡安·贾斯帕 Juan Gaspard
      法布里齐奥·扎卡里·奇诺 Fabrizio Zacharee Guido
      凯特·麦克金农 Kate McKinnon
      艾莉森·托尔曼 Allison Tolman
      布林·维尔 Bryn Vale

◎标  签 喜剧 | 家庭 | 美国 | 2019 | TaylorSchilling | 电影 | 2018 | 美国电影

◎简  介

  凯特·麦克金农、布莱恩·泰里·亨利(《亚特兰大》)、艾莉森·托尔曼(《冰血暴》)加盟新片[家庭](Fam-i-ly,暂译)。该片由Laura Steinel执导并担任编剧,讲述一个笨拙的13岁女孩麦迪,她迷恋神经质风格的说唱音乐,并试图离家出走。与此同时,一位心智不成熟的阿姨则负责照料她一周。

Video
ID : 1
Format : AVC
Format/Info : Advanced Video Codec
Format profile : [email protected]
Format settings : CABAC / 4 Ref Frames
Format settings, CABAC : Yes
Format settings, Reference frames : 4 frames
Codec ID : V_MPEG4/ISO/AVC
Duration : 1 h 25 min
Bit rate mode : Constant
Bit rate : 9 262 kb/s
Nominal bit rate : 10 000 kb/s
Width : 1 920 pixels
Height : 1 080 pixels
Display aspect ratio : 16:9
Frame rate mode : Constant
Frame rate : 23.976 (24000/1001/189150) FPS
Color space : YUV
Chroma subsampling : 4:2:0
Bit depth : 8 bits
Scan type : Progressive
Bits/(Pixel*Frame) : 0.186
Stream size : 5.55 GiB (94%)
Default : Yes
Forced : No
Color range : Limited
Color primaries : BT.709
Transfer characteristics : BT.709
Matrix coefficients : BT.709

Audio
ID : 2
Format : E-AC-3
Format/Info : Enhanced AC-3
Commercial name : Dolby Digital Plus
Codec ID : A_EAC3
Duration : 1 h 25 min
Bit rate mode : Constant
Bit rate : 640 kb/s
Channel(s) : 6 channels
Channel layout : L R C LFE Ls Rs
Sampling rate : 48.0 kHz
Frame rate : 31.250 FPS (1536 SPF)
Compression mode : Lossy
Stream size : 393 MiB (6%)
Language : English
Service kind : Complete Main
Default : Yes
Forced : No

Text
ID : 3
Format : UTF-8
Codec ID : S_TEXT/UTF8
Codec ID/Info : UTF-8 Plain Text
Duration : 1 h 24 min
Bit rate : 89 b/s
Count of elements : 1666
Stream size : 55.6 KiB (0%)
Title : English (SDH)
Language : English
Default : No
Forced : No






Family.2018.1080p.AMZN.WEBRip.DDP5.1.x264-NWD.zip
还没有人收藏过本帖~
最新回复 (0)
返回
发新帖
即将对游客闭站,请注册账号备用!
影音屋为您提供最新的720P、1080P、2K、4K、原盘高清电影下载,内部交流社区,欢迎体验。影音屋,更多好电影待您发现!
加入福利电报群 加入福利企鹅群 淘宝天猫漏洞单