如资源无法下载,请在「交流」反馈!

[2010][其他][动作][WEB-1080P]国家安全 Seguranca.Nacional.2010.PORTUGUESE.1080p.AMZN.WEBRip.DDP2.0.x264-BRG 5.86GB


帖子完整标题:国家安全 Seguranca.Nacional.2010.PORTUGUESE.1080p.AMZN.WEBRip.DDP2.0.x264-BRG 5.86GB



◎译  名 国家安全
◎片  名 Seguran?a Nacional
◎年  代 2010
◎产  地 巴西
◎类  别 动作
◎语  言 葡萄牙语
◎上映日期 2010
◎IMDb评分 3.5/10 from 275 users
◎IMDb链接 https://www.imdb.com/title/tt0439801/
◎豆瓣评分 /10 from 0 users
◎豆瓣链接 https://movie.douban.com/subject/5222208/
◎片  长 Brazil: 120 分钟
◎主  演 米尔顿·哥恩卡维斯 Milton Gon?alves
      Javier Robles
      埃尔顿·格瑞斯 Ailton Gra?a
      Viviane Victorette
      ?ngela Vieira
      Marcio Rosario
      迪亚哥·拉赛尔达 Thiago Lacerda
      Gracindo Júnior
      Tanah Correa
      华金·科西奥 Joaquín Cosio

◎标  签 巴西 | 电影 | 葡萄牙语 | 政治 | Roberto | Portuguese | 已注销账号电影 | 其他

◎简  介

  巴西政府为了防止毒品走私,加强了空中管制。某毒贩意欲给巴西政府点颜色看看,搞到了两颗核弹。巴西的国家安全受到严重威胁.......

Video
ID : 2
Format : AVC
Format/Info : Advanced Video Codec
Format profile : [email protected]
Format settings : CABAC / 4 Ref Frames
Format settings, CABAC : Yes
Format settings, Reference frames : 4 frames
Codec ID : V_MPEG4/ISO/AVC
Duration : 1 h 26 min
Bit rate mode : Constant
Bit rate : 9 511 kb/s
Nominal bit rate : 10 000 kb/s
Width : 1 920 pixels
Height : 1 080 pixels
Display aspect ratio : 16:9
Frame rate mode : Constant
Frame rate : 29.970 (30000/1001/189150) FPS
Color space : YUV
Chroma subsampling : 4:2:0
Bit depth : 8 bits
Scan type : Progressive
Bits/(Pixel*Frame) : 0.153
Stream size : 5.72 GiB (98%)
Default : Yes
Forced : No
Color range : Limited
Color primaries : BT.709
Transfer characteristics : BT.709
Matrix coefficients : BT.709

Audio
ID : 3
Format : E-AC-3
Format/Info : Enhanced AC-3
Commercial name : Dolby Digital Plus
Codec ID : A_EAC3
Duration : 1 h 26 min
Bit rate mode : Constant
Bit rate : 224 kb/s
Channel(s) : 2 channels
Channel layout : L R
Sampling rate : 48.0 kHz
Frame rate : 31.250 FPS (1536 SPF)
Compression mode : Lossy
Stream size : 138 MiB (2%)
Language : Portuguese
Service kind : Complete Main
Default : Yes
Forced : No

Text
ID : 1
Format : UTF-8
Codec ID : S_TEXT/UTF8
Codec ID/Info : UTF-8 Plain Text
Duration : 1 h 20 min
Bit rate : 48 b/s
Count of elements : 902
Stream size : 28.7 KiB (0%)
Language : English
Default : Yes
Forced : No






Seguranca.Nacional.2010.PORTUGUESE.1080p.AMZN.WEBRip.DDP2.0.x264-BRG.zip
还没有人收藏过本帖~
最新回复 (0)
返回
发新帖
即将对游客闭站,请注册账号备用!
影音屋为您提供最新的720P、1080P、2K、4K、原盘高清电影下载,内部交流社区,欢迎体验。影音屋,更多好电影待您发现!
加入福利电报群 加入福利企鹅群 淘宝天猫漏洞单