如资源无法下载,请在「交流」反馈!

[更 早][欧美][剧情][WEB-1080P]路得记/万劫佳人 The.Story.of.Ruth.1960.1080p.AMZN.WEBRip.DDP2.0.x264-NOGRP 12.22GB


帖子完整标题:路得记/万劫佳人 The.Story.of.Ruth.1960.1080p.AMZN.WEBRip.DDP2.0.x264-NOGRP 12.22GB



◎译  名 路得记/万劫佳人(港/台)/沙漠女王
◎片  名 The Story of Ruth
◎年  代 1960
◎产  地 美国
◎类  别 剧情
◎语  言 英语
◎上映日期 1960
◎IMDb评分 6.7/10 from 1036 users
◎IMDb链接 https://www.imdb.com/title/tt0054343/
◎豆瓣评分 /10 from 0 users
◎豆瓣链接 https://movie.douban.com/subject/3599025/
◎片  长 132 分钟
◎导  演 亨利·科斯特 Henry Koster
◎编  剧 诺曼·科温 Norman Corwin
◎主  演 斯图尔特·惠特曼 Stuart Whitman
      汤姆·特莱昂 Tom Tryon
      佩吉·伍德 Peggy Wood
      韦薇卡·琳德佛斯 Viveca Lindfors
      杰夫·莫罗 Jeff Morrow
      伊兰娜·伊登 Elana Eden
      塞耶·戴维 Thayer David
      莱斯·崔梅恩 Les Tremayne
      爱德华·弗朗茨 Eduard Franz
      Leo Fuchs
      丽丽瓦伦蒂 Lili Valenty
      John Gabriel
      齐娃·罗丹 Ziva Rodann
      巴兹尔·勒伊斯达尔 Basil Ruysdael
      约翰·班纳 John Banner
      Adelina Pedroza
      Sara Taft
      Jean Inness
      贝里·克勒格尔 Berry Kroeger
      Jon Silo
      唐·戴蒙德 Don Diamond
      Abdullah Abbas
      Robert Adler
      Ben Astar
      Eumenio Blanco
      维克多·布鲁诺 Victor Buono
      Charles Cirillo
      彼得·科埃 Peter Coe
      Nancy Deale
      Duke Fishman
      米尔顿·弗罗米 Milton Frome
      Kelton Garwood
      查尔斯·霍尔发斯 Charles Horvath
      Anthony Jochim
      I·斯坦福·乔利 I. Stanford Jolley
      David Leonard
      Ralph Moody
      Mike Morelli
      George Nardelli
      Yvonne Peattie
      Maida Severn
      Stephen Soldi
      Gretchen Thomas
      Bruno VeSota
      查尔斯·瓦根海姆 Charles Wagenheim

◎标  签 路得记 | 美国 | 圣经故事 | 宗教 | 信仰 | 圣经 | 想看看,成不 | 1960

◎简  介

  暂无相关剧情介绍

Video
ID : 1
Format : AVC
Format/Info : Advanced Video Codec
Format profile : [email protected]
Format settings : CABAC / 4 Ref Frames
Format settings, CABAC : Yes
Format settings, Reference frames : 4 frames
Codec ID : V_MPEG4/ISO/AVC
Duration : 2 h 11 min
Bit rate mode : Variable
Bit rate : 13.1 Mb/s
Maximum bit rate : 15.0 Mb/s
Width : 1 920 pixels
Height : 1 080 pixels
Display aspect ratio : 16:9
Frame rate mode : Constant
Frame rate : 23.976 (24000/1001/189150) FPS
Color space : YUV
Chroma subsampling : 4:2:0
Bit depth : 8 bits
Scan type : Progressive
Bits/(Pixel*Frame) : 0.263
Stream size : 12.0 GiB (98%)
Writing library : x264 core 148 r2623 d5b2374
Encoding settings : cabac=1 / ref=4 / deblock=1:-1:-1 / analyse=0x3:0x133 / me=umh / subme=9 / psy=1 / psy_rd=1.00:0.15 / mixed_ref=1 / me_range=24 / chroma_me=1 / trellis=2 / 8x8dct=1 / cqm=0 / deadzone=21,11 / fast_pskip=1 / chroma_qp_offset=-3 / threads=34 / lookahead_threads=5 / sliced_threads=0 / nr=150 / decimate=1 / interlaced=0 / bluray_compat=0 / constrained_intra=0 / bframes=8 / b_pyramid=2 / b_adapt=2 / b_bias=0 / direct=3 / weightb=1 / open_gop=0 / weightp=2 / keyint=120 / keyint_min=61 / scenecut=0 / intra_refresh=0 / rc_lookahead=120 / rc=crf / mbtree=1 / crf=18.0 / qcomp=0.60 / qpmin=0 / qpmax=69 / qpstep=4 / vbv_maxrate=15000 / vbv_bufsize=31250 / crf_max=0.0 / nal_hrd=vbr / filler=0 / ip_ratio=1.40 / aq=3:1.00
Language : English
Default : Yes
Forced : No
Color range : Limited
Color primaries : BT.709
Transfer characteristics : BT.709
Matrix coefficients : BT.709

Audio
ID : 2
Format : E-AC-3
Format/Info : Enhanced AC-3
Commercial name : Dolby Digital Plus
Codec ID : A_EAC3
Duration : 2 h 11 min
Bit rate mode : Constant
Bit rate : 224 kb/s
Channel(s) : 2 channels
Channel layout : L R
Sampling rate : 48.0 kHz
Frame rate : 31.250 FPS (1536 SPF)
Compression mode : Lossy
Stream size : 211 MiB (2%)
Title : Stereo Mix (Amazon)
Language : English
Service kind : Complete Main
Default : No
Forced : No

Text #1
ID : 3
Format : UTF-8
Codec ID : S_TEXT/UTF8
Codec ID/Info : UTF-8 Plain Text
Duration : 2 h 10 min
Bit rate : 54 b/s
Count of elements : 1328
Stream size : 51.7 KiB (0%)
Title : Amazon
Language : English
Default : No
Forced : No

Text #2
ID : 4
Format : UTF-8
Codec ID : S_TEXT/UTF8
Codec ID/Info : UTF-8 Plain Text
Duration : 2 h 10 min
Bit rate : 56 b/s
Count of elements : 1428
Stream size : 54.0 KiB (0%)
Title : SDH (Amazon)
Language : English
Default : No
Forced : No

Text #3
ID : 5
Format : UTF-8
Codec ID : S_TEXT/UTF8
Codec ID/Info : UTF-8 Plain Text
Duration : 2 h 10 min
Bit rate : 65 b/s
Count of elements : 1427
Stream size : 62.4 KiB (0%)
Title : SDH (NTSC DVD)
Language : English
Default : No
Forced : No

Text #4
ID : 6
Format : UTF-8
Codec ID : S_TEXT/UTF8
Codec ID/Info : UTF-8 Plain Text
Duration : 2 h 10 min
Bit rate : 54 b/s
Count of elements : 1423
Stream size : 52.6 KiB (0%)
Title : SDH (PAL DVD)
Language : English
Default : No
Forced : No

Text #5
ID : 7
Format : UTF-8
Codec ID : S_TEXT/UTF8
Codec ID/Info : UTF-8 Plain Text
Duration : 2 h 11 min
Bit rate : 44 b/s
Count of elements : 998
Stream size : 42.5 KiB (0%)
Title : PAL DVD
Language : Danish
Default : No
Forced : No

Text #6
ID : 8
Format : UTF-8
Codec ID : S_TEXT/UTF8
Codec ID/Info : UTF-8 Plain Text
Duration : 2 h 11 min
Bit rate : 42 b/s
Count of elements : 1339
Stream size : 41.2 KiB (0%)
Title : PAL DVD
Language : Dutch
Default : No
Forced : No

Text #7
ID : 9
Format : UTF-8
Codec ID : S_TEXT/UTF8
Codec ID/Info : UTF-8 Plain Text
Duration : 2 h 11 min
Bit rate : 48 b/s
Count of elements : 1221
Stream size : 46.3 KiB (0%)
Title : PAL DVD
Language : Finnish
Default : No
Forced : No

Text #8
ID : 10
Format : UTF-8
Codec ID : S_TEXT/UTF8
Codec ID/Info : UTF-8 Plain Text
Duration : 2 h 11 min
Bit rate : 56 b/s
Count of elements : 1348
Stream size : 53.9 KiB (0%)
Title : PAL DVD
Language : French
Default : No
Forced : No

Text #9
ID : 11
Format : UTF-8
Codec ID : S_TEXT/UTF8
Codec ID/Info : UTF-8 Plain Text
Duration : 2 h 11 min
Bit rate : 59 b/s
Count of elements : 1409
Stream size : 57.2 KiB (0%)
Title : PAL DVD
Language : German
Default : No
Forced : No

Text #10
ID : 12
Format : UTF-8
Codec ID : S_TEXT/UTF8
Codec ID/Info : UTF-8 Plain Text
Duration : 2 h 11 min
Bit rate : 98 b/s
Count of elements : 1350
Stream size : 94.6 KiB (0%)
Title : PAL DVD
Language : Greek
Default : No
Forced : No

Text #11
ID : 13
Format : UTF-8
Codec ID : S_TEXT/UTF8
Codec ID/Info : UTF-8 Plain Text
Duration : 2 h 11 min
Bit rate : 56 b/s
Count of elements : 1351
Stream size : 54.0 KiB (0%)
Title : PAL DVD
Language : Italian
Default : No
Forced : No

Text #12
ID : 14
Format : UTF-8
Codec ID : S_TEXT/UTF8
Codec ID/Info : UTF-8 Plain Text
Duration : 2 h 11 min
Bit rate : 49 b/s
Count of elements : 1350
Stream size : 47.5 KiB (0%)
Title : PAL DVD
Language : Norwegian
Default : No
Forced : No

Text #13
ID : 15
Format : UTF-8
Codec ID : S_TEXT/UTF8
Codec ID/Info : UTF-8 Plain Text
Duration : 2 h 11 min
Bit rate : 53 b/s
Count of elements : 1353
Stream size : 51.7 KiB (0%)
Title : PAL DVD
Language : Polish
Default : No
Forced : No

Text #14
ID : 16
Format : UTF-8
Codec ID : S_TEXT/UTF8
Codec ID/Info : UTF-8 Plain Text
Duration : 2 h 11 min
Bit rate : 51 b/s
Count of elements : 1350
Stream size : 49.7 KiB (0%)
Title : PAL DVD
Language : Portuguese
Default : No
Forced : No

Text #15
ID : 17
Format : UTF-8
Codec ID : S_TEXT/UTF8
Codec ID/Info : UTF-8 Plain Text
Duration : 2 h 11 min
Bit rate : 93 b/s
Count of elements : 1524
Stream size : 89.5 KiB (0%)
Title : PAL DVD Fansub
Language : Russian
Default : No
Forced : No

Text #16
ID : 18
Format : UTF-8
Codec ID : S_TEXT/UTF8
Codec ID/Info : UTF-8 Plain Text
Duration : 2 h 11 min
Bit rate : 50 b/s
Count of elements : 1341
Stream size : 48.8 KiB (0%)
Title : NTSC DVD
Language : Spanish
Default : No
Forced : No

Text #17
ID : 19
Format : UTF-8
Codec ID : S_TEXT/UTF8
Codec ID/Info : UTF-8 Plain Text
Duration : 2 h 11 min
Bit rate : 55 b/s
Count of elements : 1356
Stream size : 53.1 KiB (0%)
Title : PAL DVD
Language : Spanish
Default : No
Forced : No

Text #18
ID : 20
Format : UTF-8
Codec ID : S_TEXT/UTF8
Codec ID/Info : UTF-8 Plain Text
Duration : 2 h 11 min
Bit rate : 50 b/s
Count of elements : 1350
Stream size : 48.2 KiB (0%)
Title : PAL DVD
Language : Swedish
Default : No
Forced : No

Menu
00:00:00.000 : Sold / Main Titles
00:04:54.720 : Blemished
00:11:39.612 : Invisible God
00:15:34.900 : Creator of All
00:19:37.986 : Priestess
00:20:52.120 : Crushed Like Insects
00:26:55.680 : Filled With Doubt
00:30:52.400 : Sacrifice of a Virgin
00:33:59.480 : Life Sentence
00:37:35.200 : Purification
00:41:49.320 : Into the Light
00:48:55.450 : The Pain of Caring
00:54:22.080 : Road to Bethlehem
01:01:14.720 : Return to Judah
01:05:36.180 : The Moabitess
01:12:23.800 : Kinsmen
01:17:45.245 : Long, Hard History
01:29:15.735 : Council of the Elders
01:33:20.496 : Naomi\'s Prayer
01:37:48.720 : Trial
01:44:51.354 : Betrothal
01:50:41.120 : A Promise Kept
01:58:23.580 : The Law
02:02:59.022 : Wedding Day / End Titles






The.Story.of.Ruth.1960.1080p.AMZN.WEBRip.DDP2.0.x264-NOGRP.zip
还没有人收藏过本帖~
最新回复 (0)
返回
发新帖
即将对游客闭站,请注册账号备用!
影音屋为您提供最新的720P、1080P、2K、4K、原盘高清电影下载,内部交流社区,欢迎体验。影音屋,更多好电影待您发现!
加入福利电报群 加入福利企鹅群 淘宝天猫漏洞单