如资源无法下载,请在「交流」反馈!

[更 早][欧美][剧情][BD-1080P]亡命者/我是越狱犯 I.Am.a.Fugitive.from.a.Chain.Gang.1932.1080p.BluRay.x264.FLAC.1.0-EDPH


帖子完整标题:亡命者/我是越狱犯 I.Am.a.Fugitive.from.a.Chain.Gang.1932.1080p.BluRay.x264.FLAC.1.0-EDPH 12.40GB



◎译  名 亡命者/我是越狱犯/逃亡
◎片  名 I Am a Fugitive from a Chain Gang
◎年  代 1932
◎产  地 美国
◎类  别 剧情 / 犯罪 / 黑色电影
◎语  言 英语
◎上映日期 1932-11-19(美国)
◎IMDb评分 8.2/10 from 11849 users
◎IMDb链接 https://www.imdb.com/title/tt0023042/
◎豆瓣评分 8.3/10 from 660 users
◎豆瓣链接 https://movie.douban.com/subject/1292471/
◎片  长 92分钟
◎导  演 茂文·勒鲁瓦 Mervyn LeRoy
◎编  剧 布朗·福尔摩斯 Brown Holmes / 霍华德·J·格林 Howard J. Green / 罗伯特·E·伯恩斯 Robert E. Burns
◎主  演 保罗·穆尼 Paul Muni
      格伦达·法瑞尔 Glenda Farrell
      海伦·文逊 Helen Vinson
      诺埃尔·弗朗西斯 Noel Francis
      普雷斯顿·福斯特 Preston Foster

◎标  签 美国 | 犯罪 | 黑白 | 1930s | 茂文·勒鲁瓦 | 越狱 | 1932 | 剧情

◎简  介

  Having returned from fighting in World War I, James Allen doesn't want to settle into a humdrum life and decides to set off to find his fortune. He travels the length and breadth of America, working as a skilled tradesman in the construction industry. When times get tough however, he finds himself living in a shelter where an acquaintance suggests they go out for a hamburger. What the friend really has in mind is to rob the diner and Allen soon finds himself working on a chain gang with a long jail sentence. Allen manages to escape however and heads to Chicago where over several years he slowly but surely works his way up the ladder to become one of the most respected construction engineers in the city. His past catches up with him and despite protestations from civic leaders and his many friends in Chicago, he finds himself again on the chain gang. Escaping for a second time, he accepts that to survive, he must lead a life of crime.

◎获奖情况

  第6届奥斯卡金像奖 ?(1934)
  最佳影片(提名)
  最佳男主角(提名) 保罗·穆尼
  最佳录音(提名) 内森·莱文森

Video
ID : 1
Format : AVC
Format/Info : Advanced Video Codec
Format profile : [email protected]
Format settings : CABAC / 5 Ref Frames
Format settings, CABAC : Yes
Format settings, Reference frames : 5 frames
Codec ID : V_MPEG4/ISO/AVC
Duration : 1 h 32 min
Bit rate : 18.6 Mb/s
Width : 1 428 pixels
Height : 1 080 pixels
Display aspect ratio : 4:3
Frame rate mode : Constant
Frame rate : 23.976 (24000/1001/189150) FPS
Color space : YUV
Chroma subsampling : 4:2:0
Bit depth : 8 bits
Scan type : Progressive
Bits/(Pixel*Frame) : 0.502
Stream size : 12.0 GiB (97%)
Writing library : x264 core 160 r3009 4c9b076
Encoding settings : cabac=1 / ref=5 / deblock=1:-3:-3 / analyse=0x3:0x133 / me=umh / subme=11 / psy=1 / psy_rd=1.02:0.00 / mixed_ref=1 / me_range=32 / chroma_me=1 / trellis=2 / 8x8dct=1 / cqm=0 / deadzone=21,11 / fast_pskip=0 / chroma_qp_offset=-2 / threads=18 / lookahead_threads=4 / sliced_threads=0 / nr=0 / decimate=0 / interlaced=0 / bluray_compat=0 / constrained_intra=0 / bframes=16 / b_pyramid=2 / b_adapt=2 / b_bias=0 / direct=3 / weightb=1 / open_gop=0 / weightp=2 / keyint=250 / keyint_min=23 / scenecut=40 / intra_refresh=0 / rc_lookahead=250 / rc=crf / mbtree=0 / crf=17.0 / qcomp=0.60 / qpmin=0 / qpmax=69 / qpstep=4 / vbv_maxrate=62500 / vbv_bufsize=78125 / crf_max=0.0 / nal_hrd=none / filler=0 / ip_ratio=1.30 / pb_ratio=1.20 / aq=3:0.80
Default : Yes
Forced : No
Color range : Limited
Color primaries : BT.709
Matrix coefficients : BT.709

Audio #1
ID : 2
Format : FLAC
Format/Info : Free Lossless Audio Codec
Codec ID : A_FLAC
Duration : 1 h 32 min
Bit rate mode : Variable
Bit rate : 553 kb/s
Channel(s) : 1 channel
Channel layout : C
Sampling rate : 48.0 kHz
Frame rate : 11.719 FPS (4096 SPF)
Bit depth : 24 bits
Compression mode : Lossless
Stream size : 366 MiB (3%)
Writing library : libFLAC 1.2.1 (UTC 2007-09-17)
Language : English
Default : Yes
Forced : No

Audio #2
ID : 3
Format : AAC LC
Format/Info : Advanced Audio Codec Low Complexity
Codec ID : A_AAC-2
Duration : 1 h 32 min
Bit rate : 64.0 kb/s
Channel(s) : 2 channels
Channel layout : L R
Sampling rate : 48.0 kHz
Frame rate : 46.875 FPS (1024 SPF)
Compression mode : Lossy
Stream size : 42.4 MiB (0%)
Title : Commentary by film historian Richard B. Jewell
Language : English
Default : No
Forced : No

Text
ID : 4
Format : UTF-8
Codec ID : S_TEXT/UTF8
Codec ID/Info : UTF-8 Plain Text
Duration : 1 h 30 min
Bit rate : 43 b/s
Count of elements : 1111
Stream size : 29.0 KiB (0%)
Language : English
Default : Yes
Forced : No

Menu
00:00:00.000 : :Chapter 01
00:13:24.971 : :Chapter 02
00:32:01.002 : :Chapter 03
00:46:55.021 : :Chapter 04
00:58:00.018 : :Chapter 05
01:05:38.726 : :Chapter 06
01:13:32.992 : :Chapter 07
01:24:39.324 : :Chapter 08






I.Am.a.Fugitive.from.a.Chain.Gang.1932.1080p.BluRay.x264.FLAC.1.0-EDPH.zip
还没有人收藏过本帖~
最新回复 (0)
返回
发新帖
即将对游客闭站,请注册账号备用!
影音屋为您提供最新的720P、1080P、2K、4K、原盘高清电影下载,内部交流社区,欢迎体验。影音屋,更多好电影待您发现!
加入福利电报群 加入福利企鹅群 淘宝天猫漏洞单