如资源无法下载,请在「交流」反馈!

[2011][欧美][剧情][BD-1080P]回到藏身处/回到藏身之处 Return.to.the.Hiding.Place.2013.1080p.BluRay.x264.DTS-HANDJOB 9.42G


帖子完整标题:回到藏身处/回到藏身之处 Return.to.the.Hiding.Place.2013.1080p.BluRay.x264.DTS-HANDJOB 9.42GB



◎译  名 回到藏身处/回到藏身之处
◎片  名 Return to the Hiding Place
◎年  代 2011
◎产  地 美国
◎类  别 剧情 / 惊悚 / 历史 / 战争
◎语  言 英语
◎上映日期 2011-08-22(英国) / 2014-05-23(美国)
◎IMDb评分 4.9/10 from 658 users
◎IMDb链接 https://www.imdb.com/title/tt1691153/
◎豆瓣评分 6.4/10 from 132 users
◎豆瓣链接 https://movie.douban.com/subject/5289183/
◎主  演 约翰·瑞斯-戴维斯 John Rhys-Davies

◎标  签 二战 | 真实事件 | 美国 | 荷兰 | 荷兰抵抗军 | 战争 | 真实 | 生命

◎简  介

  1940年5月,德国入侵荷兰,荷兰青年奋起反抗,以皮特?哈提克为首组成了秘密的抵抗军。德军不仅压迫荷兰人民,更残忍地对犹太人实施种族灭绝政策。德军首领拉曼是个冷血的人,他酷爱收藏,这次他又有了一个大的计划, “收藏”孤儿院的犹太儿童。得知消息的抵抗军迅速行动,伪装成德军用卡车救出了这些孩子。皮特为了寻找一个失踪的孩子露达被捕,最后牺牲。二战期间荷兰人民建立的安全屋拯救了大批的犹太人。无数年轻生命的牺牲换来了荷兰的解放。

Video
ID : 1
Format : AVC
Format/Info : Advanced Video Codec
Format profile : [email protected]
Format settings : CABAC / 4 Ref Frames
Format settings, CABAC : Yes
Format settings, Reference frames : 4 frames
Codec ID : V_MPEG4/ISO/AVC
Duration : 2 h 9 min
Bit rate : 8 909 kb/s
Width : 1 920 pixels
Height : 1 080 pixels
Display aspect ratio : 16:9
Frame rate mode : Constant
Frame rate : 23.976 (24000/1001/189150) FPS
Color space : YUV
Chroma subsampling : 4:2:0
Bit depth : 8 bits
Scan type : Progressive
Bits/(Pixel*Frame) : 0.179
Stream size : 8.05 GiB (85%)
Writing library : x264 core 148
Encoding settings : cabac=1 / ref=4 / deblock=1:-3:-3 / analyse=0x3:0x133 / me=umh / subme=10 / psy=1 / psy_rd=1.00:0.00 / mixed_ref=1 / me_range=32 / chroma_me=1 / trellis=2 / 8x8dct=1 / cqm=0 / deadzone=21,11 / fast_pskip=0 / chroma_qp_offset=-2 / threads=6 / lookahead_threads=1 / sliced_threads=0 / nr=0 / decimate=0 / interlaced=0 / bluray_compat=0 / constrained_intra=0 / bframes=16 / b_pyramid=2 / b_adapt=2 / b_bias=0 / direct=3 / weightb=1 / open_gop=0 / weightp=2 / keyint=240 / keyint_min=24 / scenecut=40 / intra_refresh=0 / rc_lookahead=60 / rc=crf / mbtree=0 / crf=16.0 / qcomp=0.60 / qpmin=0 / qpmax=69 / qpstep=4 / vbv_maxrate=62500 / vbv_bufsize=78125 / crf_max=0.0 / nal_hrd=none / filler=0 / ip_ratio=1.40 / pb_ratio=1.30 / aq=2:1.00
Default : Yes
Forced : No
Color range : Limited
Color primaries : BT.709
Transfer characteristics : BT.709
Matrix coefficients : BT.709

Audio
ID : 2
Format : DTS
Format/Info : Digital Theater Systems
Codec ID : A_DTS
Duration : 2 h 9 min
Bit rate mode : Constant
Bit rate : 1 509 kb/s
Channel(s) : 6 channels
Channel layout : C L R Ls Rs LFE
Sampling rate : 48.0 kHz
Frame rate : 93.750 FPS (512 SPF)
Bit depth : 24 bits
Compression mode : Lossy
Stream size : 1.36 GiB (14%)
Language : English
Default : Yes
Forced : No

Text #1
ID : 3
Format : UTF-8
Codec ID : S_TEXT/UTF8
Codec ID/Info : UTF-8 Plain Text
Duration : 29 s 621 ms
Bit rate : 19 b/s
Count of elements : 3
Stream size : 74.0 Bytes (0%)
Title : English [non-English scnes]
Language : English
Default : Yes
Forced : No

Text #2
ID : 4
Format : PGS
Muxing mode : zlib
Codec ID : S_HDMV/PGS
Codec ID/Info : Picture based subtitle format used on BDs/HD-DVDs
Duration : 2 h 5 min
Bit rate : 26.8 kb/s
Count of elements : 1935
Stream size : 24.2 MiB (0%)
Title : Dutch
Language : Dutch
Default : No
Forced : No

Menu
00:00:00.000 : :Chapter 1
00:26:15.866 : :Chapter 2
00:45:27.850 : :Chapter 3
01:08:10.587 : :Chapter 4
01:36:02.215 : :Chapter 5
01:54:01.001 : :Chapter 6






Return.to.the.Hiding.Place.2013.1080p.BluRay.x264.DTS-HANDJOB.zip
还没有人收藏过本帖~
最新回复 (0)
返回
发新帖
即将对游客闭站,请注册账号备用!
影音屋为您提供最新的720P、1080P、2K、4K、原盘高清电影下载,内部交流社区,欢迎体验。影音屋,更多好电影待您发现!
加入福利电报群 加入福利企鹅群 淘宝天猫漏洞单