如资源无法下载,请在「交流」反馈!

[2017][日本][剧情][BD-1080P]火花 Spark.2017.JAPANESE.1080p.BluRay.x264.DD5.1-HANDJOB 8.52GB


帖子完整标题:火花 Spark.2017.JAPANESE.1080p.BluRay.x264.DD5.1-HANDJOB 8.52GB



◎译  名 Hibana: Spark/Sparks the Movie/栋笃双星血肉史(港)/火花映画版/火花电影版
◎片  名 火花
◎年  代 2017
◎产  地 日本
◎类  别 剧情
◎语  言 日语
◎上映日期 2017-10-15(京都国际电影节) / 2017-11-23(日本)
◎IMDb评分 6.3/10 from 98 users
◎IMDb链接 https://www.imdb.com/title/tt6538416/
◎豆瓣评分 6.3/10 from 3728 users
◎豆瓣链接 https://movie.douban.com/subject/26974725/
◎片  长 121分钟
◎导  演 板尾创路 Itsuji Itao
◎编  剧 板尾创路 Itsuji Itao / 丰田利晃 Toyoda Toshiaki / 又吉直树 Naoki Matayoshi
◎主  演 菅田将晖 Masaki Suda
      桐谷健太 Kenta Kiritani
      木村文乃 Fumino Kimura
      川谷修士 Sh?ji Kawatani
      三浦诚己 Masaki Miura
      加藤谅 Ry? Kat?
      高桥努 Tsutomu Takahashi
      日野阳仁 Youjin Hino
      山崎树范 Shigenori Yamazaki
      裴正明 Jyonmyon Pe

◎标  签 日本 | 2017 | 电影 | 剧情 | 小说改编 | 文艺 | 励志 | 梦想

◎简  介

  Sparks是一对完全不卖座的青年卖座组合,在某次露天演出中,成员之一德永(菅田将晖 饰)被傻瓜二人组的神谷才藏(桐谷健太 饰)所吸引。神谷同样渴望成名,他空有满脑子的好点子,却始终和这个世界格格不入。德永钦佩对方,于是请求拜对方为师。与之相对,神谷则提出了要德永为他写传记的要求。此后的岁月里,师徒二人惺惺相惜,每次聊天吃饭都夹杂着令人捧腹的插科打诨。在这一过程中,与神谷同居的女子真里(木村文乃 饰)选择成家,出道没多久的后辈名声大噪,一同打拼多年的搭档萌生退意。为了喜欢的事业,德永和神谷都不知不觉奉献着自己的全部人生,只为那花火退去后的星点光辉……
  
  本片根据又吉直树的原著改编。

◎获奖情况

  第42届报知映画赏 ?(2017)
  最佳男主角 菅田将晖

Video
ID : 1
Format : AVC
Format/Info : Advanced Video Codec
Format profile : [email protected]
Format settings : CABAC / 4 Ref Frames
Format settings, CABAC : Yes
Format settings, Reference frames : 4 frames
Codec ID : V_MPEG4/ISO/AVC
Duration : 2 h 0 min
Bit rate : 9 364 kb/s
Width : 1 920 pixels
Height : 1 026 pixels
Display aspect ratio : 1.85:1
Frame rate mode : Constant
Frame rate : 23.976 (24000/1001/189150) FPS
Color space : YUV
Chroma subsampling : 4:2:0
Bit depth : 8 bits
Scan type : Progressive
Bits/(Pixel*Frame) : 0.198
Stream size : 7.90 GiB (93%)
Writing library : x264 core 157 r2935 545de2f
Encoding settings : cabac=1 / ref=4 / deblock=1:-3:-3 / analyse=0x3:0x133 / me=umh / subme=10 / psy=1 / psy_rd=1.00:0.00 / mixed_ref=1 / me_range=32 / chroma_me=1 / trellis=2 / 8x8dct=1 / cqm=0 / deadzone=21,11 / fast_pskip=0 / chroma_qp_offset=-2 / threads=24 / lookahead_threads=4 / sliced_threads=0 / nr=0 / decimate=0 / interlaced=0 / bluray_compat=0 / constrained_intra=0 / bframes=9 / b_pyramid=2 / b_adapt=2 / b_bias=0 / direct=3 / weightb=1 / open_gop=0 / weightp=2 / keyint=240 / keyint_min=24 / scenecut=40 / intra_refresh=0 / rc_lookahead=60 / rc=crf / mbtree=0 / crf=15.5 / qcomp=0.60 / qpmin=0 / qpmax=69 / qpstep=4 / vbv_maxrate=62500 / vbv_bufsize=78125 / crf_max=0.0 / nal_hrd=none / filler=0 / ip_ratio=1.40 / pb_ratio=1.30 / aq=2:1.00
Default : Yes
Forced : No
Color range : Limited
Color primaries : BT.709
Transfer characteristics : BT.709
Matrix coefficients : BT.709

Audio
ID : 2
Format : AC-3
Format/Info : Audio Coding 3
Commercial name : Dolby Digital
Codec ID : A_AC3
Duration : 2 h 0 min
Bit rate mode : Constant
Bit rate : 640 kb/s
Channel(s) : 6 channels
Channel layout : L R C LFE Ls Rs
Sampling rate : 48.0 kHz
Frame rate : 31.250 FPS (1536 SPF)
Compression mode : Lossy
Stream size : 553 MiB (6%)
Language : Japanese
Service kind : Complete Main
Default : Yes
Forced : No

Text #1
ID : 3
Format : UTF-8
Codec ID : S_TEXT/UTF8
Codec ID/Info : UTF-8 Plain Text
Duration : 1 h 56 min
Bit rate : 57 b/s
Count of elements : 1864
Stream size : 49.1 KiB (0%)
Language : English
Default : Yes
Forced : No

Text #2
ID : 4
Format : PGS
Muxing mode : zlib
Codec ID : S_HDMV/PGS
Codec ID/Info : Picture based subtitle format used on BDs/HD-DVDs
Duration : 1 h 59 min
Bit rate : 225 kb/s
Count of elements : 9929
Stream size : 192 MiB (2%)
Language : Japanese
Default : No
Forced : No

Menu
00:00:00.000 : :Chapter 1
00:14:26.324 : :Chapter 2
00:20:31.147 : :Chapter 3
00:31:23.382 : :Chapter 4
00:41:25.233 : :Chapter 5
00:53:27.496 : :Chapter 6
01:02:39.756 : :Chapter 7
01:12:55.538 : :Chapter 8
01:23:31.757 : :Chapter 9
01:29:22.357 : :Chapter 10
01:41:50.605 : :Chapter 11
01:49:50.042 : :Chapter 12
02:00:45.530 : :Chapter 13






Spark.2017.JAPANESE.1080p.BluRay.x264.DD5.1-HANDJOB.zip
还没有人收藏过本帖~
最新回复 (0)
返回
发新帖
即将对游客闭站,请注册账号备用!
影音屋为您提供最新的720P、1080P、2K、4K、原盘高清电影下载,内部交流社区,欢迎体验。影音屋,更多好电影待您发现!
加入福利电报群 加入福利企鹅群 淘宝天猫漏洞单