如资源无法下载,请在「交流」反馈!

[更 早][其他][喜剧][BD-1080P]吝啬鬼 The.Miser.1980.FRENCH.1080p.BluRay.x264.FLAC.2.0-HANDJOB 8.61GB


帖子完整标题:吝啬鬼 The.Miser.1980.FRENCH.1080p.BluRay.x264.FLAC.2.0-HANDJOB 8.61GB



◎译  名 吝啬鬼/The Miser/悭吝鬼
◎片  名 L'Avare
◎年  代 1980
◎产  地 法国
◎类  别 喜剧
◎语  言 法语
◎上映日期 1980-03-05(法国)
◎IMDb评分 6.7/10 from 4097 users
◎IMDb链接 https://www.imdb.com/title/tt0078813/
◎豆瓣评分 8.3/10 from 1790 users
◎豆瓣链接 https://movie.douban.com/subject/1469239/
◎片  长 125 分钟
◎导  演 路易·德·菲奈斯 Louis de Funès / 让·吉罗 Jean Girault
◎编  剧 路易·德·菲奈斯 Louis de Funès / 让·吉罗 Jean Girault
◎主  演 路易·德·菲奈斯 Louis de Funès
      居伊·格罗索 Guy Grosso
      亨利·热内斯 Henri Génès
      马克斯·蒙塔旺 Max Montavon
      米歇尔·莫多 Michel Modo
      贝尔纳·梅内斯 Bernard Menez
      克洛德·让萨克 Claude Gensac
      Anne Caudry
      Madeleine Barbulée
      米舍利娜·布尔戴 Micheline Bourday
      Georges Audoubert
      米歇尔·加拉布吕 Michel Galabru
      盖勒·罗格朗 Ga?lle Legrand

◎标  签 喜剧 | 法国 | 路易·德·菲耐斯 | 法国电影 | 经典 | 1980 | 莫里埃 | LouisDeFunès

◎简  介

  阿巴贡(路易·德·菲耐斯 Louis de Funès 饰)是个人尽皆知的吝啬鬼,早年丧妻的他带着女儿艾莉丝(Claire Dupray 饰)和儿子克莱昂特(皮埃尔·奥赛达特 Pierre Aussedat 饰)过着平静的生活。靠放高利贷为生的阿巴贡将辛苦赚来的金币埋在了花园里,他将自家花园的地下视为最保险和最安全的所在。
  
  阿巴贡一直在追求一个名叫玛丽安娜(Madeleine Barbulée 饰)的年轻姑娘,没想到玛丽安娜却和克莱昂特两情相悦,两人在花园里幽会的时候被阿巴贡逮了个正着,这让阿巴贡十分气恼。祸不单行,阿巴贡埋在地下的金币失窃了,克莱昂特向父亲承诺他将查出盗窃金币的罪魁祸首,但作为报酬,他必须祝福他与玛丽安娜的爱情。

Video
ID : 1
Format : AVC
Format/Info : Advanced Video Codec
Format profile : [email protected]
Format settings : CABAC / 4 Ref Frames
Format settings, CABAC : Yes
Format settings, Reference frames : 4 frames
Codec ID : V_MPEG4/ISO/AVC
Duration : 2 h 1 min
Bit rate : 9 760 kb/s
Width : 1 800 pixels
Height : 1 080 pixels
Display aspect ratio : 5:3
Frame rate mode : Constant
Frame rate : 24.000 FPS
Color space : YUV
Chroma subsampling : 4:2:0
Bit depth : 8 bits
Scan type : Progressive
Bits/(Pixel*Frame) : 0.209
Stream size : 8.30 GiB (96%)
Writing library : x264 core 157 r2935 545de2f
Encoding settings : cabac=1 / ref=4 / deblock=1:-3:-3 / analyse=0x3:0x133 / me=umh / subme=10 / psy=1 / psy_rd=1.00:0.00 / mixed_ref=1 / me_range=32 / chroma_me=1 / trellis=2 / 8x8dct=1 / cqm=0 / deadzone=21,11 / fast_pskip=0 / chroma_qp_offset=-2 / threads=18 / lookahead_threads=4 / sliced_threads=0 / nr=0 / decimate=0 / interlaced=0 / bluray_compat=0 / constrained_intra=0 / bframes=16 / b_pyramid=2 / b_adapt=2 / b_bias=0 / direct=3 / weightb=1 / open_gop=0 / weightp=2 / keyint=240 / keyint_min=24 / scenecut=40 / intra_refresh=0 / rc_lookahead=60 / rc=crf / mbtree=0 / crf=20.2 / qcomp=0.60 / qpmin=0 / qpmax=69 / qpstep=4 / vbv_maxrate=62500 / vbv_bufsize=78125 / crf_max=0.0 / nal_hrd=none / filler=0 / ip_ratio=1.40 / pb_ratio=1.30 / aq=2:1.00
Default : Yes
Forced : No
Color range : Limited
Color primaries : BT.709
Transfer characteristics : BT.709
Matrix coefficients : BT.709

Audio
ID : 2
Format : FLAC
Format/Info : Free Lossless Audio Codec
Codec ID : A_FLAC
Duration : 2 h 1 min
Bit rate mode : Variable
Bit rate : 338 kb/s
Channel(s) : 2 channels
Channel layout : L R
Sampling rate : 48.0 kHz
Frame rate : 11.719 FPS (4096 SPF)
Bit depth : 16 bits
Compression mode : Lossless
Stream size : 294 MiB (3%)
Writing library : libFLAC 1.3.2 (UTC 2017-01-01)
Language : French
Default : Yes
Forced : No

Text #1
ID : 3
Format : UTF-8
Codec ID : S_TEXT/UTF8
Codec ID/Info : UTF-8 Plain Text
Duration : 1 h 58 min
Bit rate : 98 b/s
Count of elements : 1918
Stream size : 85.4 KiB (0%)
Language : English
Default : Yes
Forced : No

Text #2
ID : 4
Format : UTF-8
Codec ID : S_TEXT/UTF8
Codec ID/Info : UTF-8 Plain Text
Duration : 1 h 58 min
Bit rate : 93 b/s
Count of elements : 1615
Stream size : 81.0 KiB (0%)
Language : Romanian
Default : No
Forced : No

Text #3
ID : 5
Format : PGS
Muxing mode : zlib
Codec ID : S_HDMV/PGS
Codec ID/Info : Picture based subtitle format used on BDs/HD-DVDs
Duration : 2 h 1 min
Bit rate : 62.8 kb/s
Count of elements : 4670
Stream size : 54.4 MiB (1%)
Language : French
Default : No
Forced : No

Menu
00:00:00.000 : Chapter 01
00:11:25.416 : Chapter 02
00:19:17.375 : Chapter 03
00:30:37.250 : Chapter 04
00:40:46.625 : Chapter 05
00:51:53.625 : Chapter 06
01:05:32.875 : Chapter 07
01:13:25.458 : Chapter 08
01:22:20.541 : Chapter 09
01:34:50.041 : Chapter 10
01:47:28.208 : Chapter 11
02:00:17.833 : Chapter 12






The.Miser.1980.FRENCH.1080p.BluRay.x264.FLAC.2.0-HANDJOB.zip
还没有人收藏过本帖~
最新回复 (0)
返回
发新帖
即将对游客闭站,请注册账号备用!
影音屋为您提供最新的720P、1080P、2K、4K、原盘高清电影下载,内部交流社区,欢迎体验。影音屋,更多好电影待您发现!
加入福利电报群 加入福利企鹅群 淘宝天猫漏洞单