如资源无法下载,请在「交流」反馈!

[更 早][日本][剧情][WEB-1080P]火宅之人 House.on.Fire.1986.JAPANESE.1080p.AMZN.WEBRip.DDP2.0.x264-NOGRP 13.25GB


帖子完整标题:火宅之人 House.on.Fire.1986.JAPANESE.1080p.AMZN.WEBRip.DDP2.0.x264-NOGRP 13.25GB



◎译  名 火宅之人/House on Fire
◎片  名 火宅の人
◎年  代 1986
◎产  地 日本
◎类  别 剧情
◎语  言 日语
◎上映日期 1986-04-12(日本)
◎IMDb评分6.9/10 from 112 users
◎IMDb链接https://www.imdb.com/title/tt0202967/
◎豆瓣评分 8.1/10 from 1810 users
◎豆瓣链接 https://movie.douban.com/subject/1394515/
◎片  长 133 分钟
◎导  演 深作欣二 Kinji Fukasaku
◎编  剧 神波史男 Fumio K?nami / 深作欣二 Kinji Fukasaku / 檀一雄 Kazuo Dan
◎主  演 绪形拳 Ken Ogata
     石田良子 Ayumi Ishida
     原田美枝子 Mieko Harada
     松坂庆子 Keiko Matsuzaka
     荒井注 Ch? Arai
     檀富美 Fumi Dan
     井川比佐志 Hisashi Igawa
     石桥莲司 Renji Ishibashi
     真田广之 Hiroyuki Sanada
     下条阿童木 Atomu Shimoj?
     相马刚三 G?z? S?ma
     山谷初男 Hatsuo Yamaya

◎标  签 深作欣二 | 日本 | 日本电影 | 情色 | 爱情 | 1986 | 绪形拳 | 松板庆子

◎简  介

  “因各种烦心事而焦虑不安,就如同着火的房子一般,这样的人称作‘火宅之人’。”
  
  前妻去世后,作家桂一雄(绪形拳 饰)娶顺子(いしだあゆみ 饰)为妻,夫妻俩连同五个孩子的生活倒也和顺。然一场灾难不幸降临,次子次郎(一柳信之 饰)罹患脑炎,生活不能自理。深受打击的顺子从此迷信宗教,家庭关系日渐紧张。在此期间,一雄结识同样来自九州的年轻女演员矢岛惠子(原田美枝子 饰),并邀请惠子和他一同外出参加太宰治文学碑的剪彩仪式。回到家中后,一雄坦白了这段不伦之恋,顺子愤而离家出走,一雄则干脆搬到宾馆,与惠子沉浸在无尽的欢愉之中……
  
  本片改编自檀一雄同名小说,并荣获日本电影学院奖最佳电影、最佳导演、最佳男主角、最佳女主角等7项大奖。

◎获奖情况

  第11届报知映画赏 ?(1986)
  最佳女主角 石田良子
  最佳女配角 原田美枝子

Video
ID : 1
Format : AVC
Format/Info: Advanced Video Codec
Format profile : [email protected]
Format settings: CABAC / 4 Ref Frames
Format settings, CABAC : Yes
Format settings, Reference frames: 4 frames
Codec ID : V_MPEG4/ISO/AVC
Duration : 2 h 12 min
Bit rate : 14.1 Mb/s
Width: 1 920 pixels
Height : 1 080 pixels
Display aspect ratio : 16:9
Frame rate mode: Constant
Frame rate : 23.976 (24000/1001/189150) FPS
Color space: YUV
Chroma subsampling : 4:2:0
Bit depth: 8 bits
Scan type: Progressive
Bits/(Pixel*Frame) : 0.284
Stream size: 13.0 GiB (98%)
Default: Yes
Forced : No
Color range: Limited
Color primaries: BT.709
Transfer characteristics : BT.709
Matrix coefficients: BT.709

Audio
ID : 2
Format : E-AC-3
Format/Info: Enhanced AC-3
Commercial name: Dolby Digital Plus
Codec ID : A_EAC3
Duration : 2 h 12 min
Bit rate mode: Constant
Bit rate : 224 kb/s
Channel(s) : 2 channels
Channel layout : L R
Sampling rate: 48.0 kHz
Frame rate : 31.250 FPS (1536 SPF)
Compression mode : Lossy
Stream size: 212 MiB (2%)
Language : Japanese
Service kind : Complete Main
Default: Yes
Forced : No

Text
ID : 3
Format : UTF-8
Codec ID : S_TEXT/UTF8
Codec ID/Info: UTF-8 Plain Text
Duration : 2 h 7 min
Bit rate : 32 b/s
Count of elements: 1660
Stream size: 30.7 KiB (0%)
Language : English
Default: Yes
Forced : No






House.on.Fire.1986.JAPANESE.1080p.AMZN.WEBRip.DDP2.0.x264-NOGRP.zip
还没有人收藏过本帖~
最新回复 (0)
返回
发新帖
即将对游客闭站,请注册账号备用!
影音屋为您提供最新的720P、1080P、2K、4K、原盘高清电影下载,内部交流社区,欢迎体验。影音屋,更多好电影待您发现!
加入福利电报群 加入福利企鹅群 淘宝天猫漏洞单