如资源无法下载,请在「交流」反馈!

[2018][欧美][其他][WEB-1080P]比尔·默里故事:从神话人物身上学到的人生教训 The.Bill.Murray.Stories.Life.Lessons.Learned.from.a.Mythi


帖子完整标题:比尔·默里故事:从神话人物身上学到的人生教训 The.Bill.Murray.Stories.Life.Lessons.Learned.from.a.Mythical.Man.2018.1080p.WEBRip.x264-RARBG 1.36GB



◎译  名 比尔·默里故事:从神话人物身上学到的人生教训
◎片  名 The Bill Murray Stories: Life Lessons Learned from Mythical Man
◎年  代 2018
◎产  地 美国
◎类  别 纪录片
◎语  言 英语
◎上映日期 2018-03-10(美国)
◎IMDb评分7/10 from 1971 users
◎IMDb链接https://www.imdb.com/title/tt7329810/
◎豆瓣评分 /10 from 0 users
◎豆瓣链接 https://movie.douban.com/subject/30220649/
◎片  长 70分钟
◎主  演 彼得·法雷里 Peter Farrelly
     布莱恩·加拉格尔 Brian Gallagher

◎标  签 纪录片 | 美国 | 2018 | Documentary | Bill_Murray

◎简  介

  This documentary explores various urban legends around Hollywood's most elusive star.

Video
ID : 1
Format : AVC
Format/Info: Advanced Video Codec
Format profile : [email protected]
Format settings: CABAC / 4 Ref Frames
Format settings, CABAC : Yes
Format settings, Reference frames: 4 frames
Codec ID : avc1
Codec ID/Info: Advanced Video Coding
Duration : 1 h 11 min
Bit rate : 2 500 kb/s
Width: 1 920 pixels
Height : 1 080 pixels
Display aspect ratio : 16:9
Frame rate mode: Constant
Frame rate : 23.976 (23976/1000/189150) FPS
Color space: YUV
Chroma subsampling : 4:2:0
Bit depth: 8 bits
Scan type: Progressive
Bits/(Pixel*Frame) : 0.050
Stream size: 1.25 GiB (92%)
Writing library: x264 core 152 r2851M ba24899
Encoding settings: cabac=1 / ref=4 / deblock=1:-1:-1 / analyse=0x3:0x113 / me=umh / subme=9 / psy=1 / psy_rd=1.00:0.15 / mixed_ref=1 / me_range=24 / chroma_me=1 / trellis=2 / 8x8dct=1 / cqm=0 / deadzone=21,11 / fast_pskip=1 / chroma_qp_offset=-3 / threads=16 / lookahead_threads=4 / sliced_threads=0 / nr=0 / decimate=1 / interlaced=0 / bluray_compat=0 / constrained_intra=0 / bframes=3 / b_pyramid=2 / b_adapt=2 / b_bias=0 / direct=3 / weightb=1 / open_gop=0 / weightp=2 / keyint=250 / keyint_min=25 / scenecut=40 / intra_refresh=0 / rc_lookahead=50 / rc=2pass / mbtree=1 / bitrate=2500 / ratetol=1.0 / qcomp=0.60 / qpmin=0 / qpmax=69 / qpstep=4 / cplxblur=20.0 / qblur=0.5 / vbv_maxrate=31250 / vbv_bufsize=31250 / nal_hrd=none / filler=0 / ip_ratio=1.40 / aq=3:1.00
Encoded date : UTC 2021-01-21 01:17:26
Tagged date: UTC 2021-01-21 01:17:26
Codec configuration box: avcC

Audio
ID : 2
Format : AAC LC
Format/Info: Advanced Audio Codec Low Complexity
Codec ID : mp4a-40-2
Duration : 1 h 11 min
Bit rate mode: Constant
Bit rate : 224 kb/s
Channel(s) : 6 channels
Channel layout : C L R Ls Rs LFE
Sampling rate: 48.0 kHz
Frame rate : 46.875 FPS (1024 SPF)
Compression mode : Lossy
Stream size: 115 MiB (8%)
Language : English
Default: Yes
Alternate group: 1
Encoded date : UTC 2021-01-21 01:17:26
Tagged date: UTC 2021-01-21 01:17:26






The.Bill.Murray.Stories.Life.Lessons.Learned.from.a.Mythical.Man.2018.1080p.WEBRip.x264-RARBG.zip
还没有人收藏过本帖~
最新回复 (0)
返回
发新帖
即将对游客闭站,请注册账号备用!
影音屋为您提供最新的720P、1080P、2K、4K、原盘高清电影下载,内部交流社区,欢迎体验。影音屋,更多好电影待您发现!
加入福利电报群 加入福利企鹅群 淘宝天猫漏洞单