如资源无法下载,请在「交流」反馈!

[2018][其他][剧情][BD-1080P]清算行动 Decision.Liquidation.2018.RUSSIAN.1080p.BluRay.x264.DD5.1-EDPH 9.78GB


帖子完整标题:清算行动 Decision.Liquidation.2018.RUSSIAN.1080p.BluRay.x264.DD5.1-EDPH 9.78GB



◎译  名 清算行动/Decision on liquidation
◎片  名 Решение о ликвидации
◎年  代 2018
◎产  地 俄罗斯
◎类  别 剧情 / 动作 / 惊悚 / 战争
◎语  言 俄语
◎上映日期 2018-06-17(俄罗斯)
◎IMDb评分5.2/10 from 174 users
◎IMDb链接https://www.imdb.com/title/tt8816130/
◎豆瓣评分 6.8/10 from 142 users
◎豆瓣链接 https://movie.douban.com/subject/30316466/
◎片  长 94分钟
◎导  演 亚历山大·阿拉文 Aleksandr Aravin
◎主  演 伊戈尔·别特连科 Igor Petrenko

◎标  签 战争 | 俄罗斯电影 | 俄罗斯 | 动作 | 反恐 | 2018 | 车臣 | 犯罪

◎简  介

  无情的极端主义恐怖分子巴兹基夫负责恐怖袭击,导致数以百计的平民死亡,其中包括学童,并正在计划采取新的行动。俄罗斯安全局特工,已对他进行跟踪,意欲一网打尽。

Video
ID : 1
Format : AVC
Format/Info: Advanced Video Codec
Format profile : [email protected]
Format settings: CABAC / 5 Ref Frames
Format settings, CABAC : Yes
Format settings, Reference frames: 5 frames
Codec ID : V_MPEG4/ISO/AVC
Duration : 1 h 36 min
Bit rate : 13.9 Mb/s
Width: 1 920 pixels
Height : 804 pixels
Display aspect ratio : 2.40:1
Frame rate mode: Constant
Frame rate : 23.976 (24000/1001/189150) FPS
Color space: YUV
Chroma subsampling : 4:2:0
Bit depth: 8 bits
Scan type: Progressive
Bits/(Pixel*Frame) : 0.376
Stream size: 9.35 GiB (96%)
Writing library: x264 core 161 r3027 4121277
Encoding settings: cabac=1 / ref=5 / deblock=1:-3:-3 / analyse=0x3:0x133 / me=umh / subme=11 / psy=1 / psy_rd=1.02:0.00 / mixed_ref=1 / me_range=32 / chroma_me=1 / trellis=2 / 8x8dct=1 / cqm=0 / deadzone=21,11 / fast_pskip=0 / chroma_qp_offset=-2 / threads=12 / lookahead_threads=3 / sliced_threads=0 / nr=0 / decimate=0 / interlaced=0 / bluray_compat=0 / constrained_intra=0 / bframes=16 / b_pyramid=2 / b_adapt=2 / b_bias=0 / direct=3 / weightb=1 / open_gop=0 / weightp=2 / keyint=250 / keyint_min=23 / scenecut=40 / intra_refresh=0 / rc_lookahead=250 / rc=crf / mbtree=0 / crf=16.2 / qcomp=0.65 / qpmin=0 / qpmax=69 / qpstep=4 / vbv_maxrate=62500 / vbv_bufsize=78125 / crf_max=0.0 / nal_hrd=none / filler=0 / ip_ratio=1.30 / pb_ratio=1.20 / aq=3:0.80
Default: No
Forced : No
Color range: Limited
Color primaries: BT.709
Matrix coefficients: BT.709

Audio
ID : 2
Format : AC-3
Format/Info: Audio Coding 3
Commercial name: Dolby Digital
Codec ID : A_AC3
Duration : 1 h 36 min
Bit rate mode: Constant
Bit rate : 640 kb/s
Channel(s) : 6 channels
Channel layout : L R C LFE Ls Rs
Sampling rate: 48.0 kHz
Frame rate : 31.250 FPS (1536 SPF)
Compression mode : Lossy
Stream size: 440 MiB (4%)
Language : Russian
Service kind : Complete Main
Default: No
Forced : No

Text
ID : 3
Format : UTF-8
Codec ID : S_TEXT/UTF8
Codec ID/Info: UTF-8 Plain Text
Duration : 1 h 33 min
Bit rate : 39 b/s
Count of elements: 750
Stream size: 26.8 KiB (0%)
Language : English
Default: Yes
Forced : No

Menu
00:00:00.000 : en:Chapter 01
00:10:03.686 : en:Chapter 02
00:18:43.539 : en:Chapter 03
00:27:10.587 : en:Chapter 04
00:35:30.294 : en:Chapter 05
00:44:10.356 : en:Chapter 06
00:53:00.343 : en:Chapter 07
01:03:31.182 : en:Chapter 08
01:13:11.345 : en:Chapter 09
01:22:21.353 : en:Chapter 10






Decision.Liquidation.2018.RUSSIAN.1080p.BluRay.x264.DD5.1-EDPH.zip
还没有人收藏过本帖~
最新回复 (0)
返回