如资源无法下载,请在「交流」反馈!

[更 早][欧美][喜剧][BD-4K]贼博士/老妇杀手团 The.Ladykillers.1955.OAR.2160p.BluRay.x265.10bit.SDR.DTS-HD.MA.2.0-SWT


帖子完整标题:贼博士/老妇杀手团 The.Ladykillers.1955.OAR.2160p.BluRay.x265.10bit.SDR.DTS-HD.MA.2.0-SWTYBLZ 38.44GB



◎译  名 贼博士/老妇杀手团/贵妇杀手
◎片  名 The Ladykillers
◎年  代 1955
◎产  地 英国
◎类  别 喜剧 / 惊悚 / 犯罪
◎语  言 英语
◎上映日期 1955-12-01
◎IMDb评分7.7/10 from 26201 users
◎IMDb链接https://www.imdb.com/title/tt0048281/
◎豆瓣评分 7.6/10 from 2592 users
◎豆瓣链接 https://movie.douban.com/subject/1304710/
◎片  长 91 分钟
◎导  演 亚历山大·麦肯德里克 Alexander Mackendrick
◎编  剧 威廉·罗斯 William Rose / Jimmy O'Connor
◎主  演 亚历克·吉尼斯 Alec Guinness
     西塞尔·帕克 Cecil Parker
     赫伯特·罗姆 Herbert Lom
     彼得·塞勒斯 Peter Sellers
     凯蒂·约翰逊 Katie Johnson
     尤安·罗伯茨 Ewan Roberts
     斯特拉特福德·约翰斯 Stratford Johns
     Jack Melford
     Arthur Mullard
     尼尔·威尔森 Neil Wilson
     Peter Williams
     菲利普·斯坦顿 Philip Stainton
     山姆·基德 Sam Kydd
     弗雷德·格里菲思 Fred Griffiths
     伊迪·马丁 Edie Martin
     Danny Green
     弗兰基·豪尔德 Frankie Howerd
     杰克·华纳 Jack Warner
     Kenneth Connor
     Hélène Burls
     Vincent Holman
     Harold Goodwin

◎标  签 英国 | 喜剧 | 犯罪 | 黑色幽默 | 英国电影 | 1950s | 1955 | AlexanderMackendrick

◎简  介

  怀博菲丝太太在警察局自称见到不明飞行物被警察赶了出去。
  
  一个乐队跑去了怀博菲丝太太的住所,他们希望能借住在这里创造一首新歌。其实他们正计划抢劫运钞车,他们在怀博菲丝太太的公寓筹备着整个计划,而怀博菲丝太太还蒙在鼓里。
  
  当他们成功的抢劫了运钞车之后,事情也终于让怀博菲丝太太发现了,他们决定将怀博菲丝太太杀掉一了百了,但他们却都因为不同的原因相继死去。
  
  老太太去警察局报案,警察却因为之前的“不明飞行物事件”完全否定怀博菲丝太太的说法,最后那笔钱全成了老太太一个人的。
  
  讲述一群智商不高的盗贼想不到会栽在一个小老太太手里。居住在伦敦的怀博菲丝太太到警察局自称见到不明飞行物,被警察赶了出去。一个乐队来到菲丝太太的住所租房子,说要在这里搞创作。其实他们是一伙窃贼,正计划抢劫运钞车,要在菲丝太太的公寓做准备,而她还蒙在鼓里。当他们抢劫成功后,菲丝太太也终于发现了真相,于是他们决定将菲丝太太灭口,然而这个老太太似乎不是看上去那么好对付,窃贼们全都因为不同的原因相继死去。老太太去警局报案,警察却因为之前的“不明飞行物事件”完全否定菲丝太太的说法,最后那笔钱全成了老太太一个人的。

◎获奖情况

  第29届奥斯卡金像奖 ?(1957)
  最佳原创剧本(提名) 威廉·罗斯

Video
ID : 1
Format : HEVC
Format/Info: High Efficiency Video Coding
Format profile : Main [email protected]@High
Codec ID : V_MPEGH/ISO/HEVC
Duration : 1 h 30 min
Bit rate : 58.1 Mb/s
Width: 2 960 pixels
Height : 2 160 pixels
Display aspect ratio : 1.370
Frame rate mode: Constant
Frame rate : 24.000 FPS
Color space: YUV
Chroma subsampling : 4:2:0
Bit depth: 10 bits
Bits/(Pixel*Frame) : 0.379
Stream size: 36.8 GiB (96%)
Writing library: x265 3.0ed72af837053:[Windows][GCC 8.2.0][64 bit] 10bit
Encoding settings: cpuid=1111039 / frame-threads=6 / numa-pools=40 / wpp / no-pmode / no-pme / no-psnr / no-ssim / log-level=2 / input-csp=1 / input-res=2960x2160 / interlace=0 / total-frames=130599 / level-idc=51 / high-tier=1 / uhd-bd=0 / ref=3 / no-allow-non-conformance / repeat-headers / annexb / aud / hrd / info / hash=0 / no-temporal-layers / no-open-gop / min-keyint=1 / keyint=24 / gop-lookahead=0 / bframes=4 / b-adapt=2 / b-pyramid / bframe-bias=0 / rc-lookahead=25 / lookahead-slices=4 / scenecut=40 / radl=0 / no-splice / no-intra-refresh / ctu=64 / min-cu-size=8 / no-rect / no-amp / max-tu-size=32 / tu-inter-depth=1 / tu-intra-depth=1 / limit-tu=0 / rdoq-level=0 / dynamic-rd=0.00 / no-ssim-rd / signhide / no-tskip / nr-intra=0 / nr-inter=0 / no-constrained-intra / strong-intra-smoothing / max-merge=2 / limit-refs=3 / no-limit-modes / me=1 / subme=2 / merange=57 / temporal-mvp / weightp / no-weightb / no-analyze-src-pics / deblock=0:0 / no-sao / no-sao-non-deblock / rd=3 / no-early-skip / rskip / no-fast-intra / no-tskip-fast / no-cu-lossless / no-b-intra / no-splitrd-skip / rdpenalty=0 / psy-rd=2.00 / psy-rdoq=0.00 / no-rd-refine / no-lossless / cbqpoffs=0 / crqpoffs=0 / rc=crf / crf=20.0 / qcomp=0.60 / qpstep=4 / stats-write=0 / stats-read=0 / vbv-maxrate=160000 / vbv-bufsize=160000 / vbv-init=0.9 / crf-max=0.0 / crf-min=0.0 / ipratio=1.40 / pbratio=1.30 / aq-mode=1 / aq-strength=1.00 / cutree / zone-count=0 / no-strict-cbr / qg-size=32 / no-rc-grain / qpmax=69 / qpmin=0 / no-const-vbv / sar=1 / overscan=0 / videoformat=5 / range=0 / colorprim=2 / transfer=2 / colormatrix=2 / chromaloc=0 / display-window=0 / max-cll=0,0 / min-luma=0 / max-luma=1023 / log2-max-poc-lsb=8 / vui-timing-info / vui-hrd-info / slices=1 / opt-qp-pps / opt-ref-list-length-pps / no-multi-pass-opt-rps / scenecut-bias=0.05 / no-opt-cu-delta-qp / no-aq-motion / no-hdr / no-hdr-opt / no-dhdr10-opt / no-idr-recovery-sei / analysis-reuse-level=5 / scale-factor=0 / refine-intra=0 / refine-inter=0 / refine-mv=0 / refine-ctu-distortion=0 / no-limit-sao / ctu-info=0 / no-lowpass-dct / refine-analysis-type=0 / copy-pic=1 / max-ausize-factor=1.0 / no-dynamic-refine / no-single-sei / no-hevc-aq / qp-adaptation-range=1.00
Default: Yes
Forced : No

Audio #1
ID : 2
Format : DTS XLL
Format/Info: Digital Theater Systems
Commercial name: DTS-HD Master Audio
Codec ID : A_DTS
Duration : 1 h 30 min
Bit rate mode: Variable
Bit rate : 1 489 kb/s
Channel(s) : 2 channels
Channel layout : L R
Sampling rate: 48.0 kHz
Frame rate : 93.750 FPS (512 SPF)
Bit depth: 24 bits
Compression mode : Lossless
Stream size: 966 MiB (2%)
Title: DTS-HD MA 2.0
Language : English
Default: Yes
Forced : No

Audio #2
ID : 3
Format : AC-3
Format/Info: Audio Coding 3
Commercial name: Dolby Digital
Codec ID : A_AC3
Duration : 1 h 30 min
Bit rate mode: Constant
Bit rate : 640 kb/s
Channel(s) : 2 channels
Channel layout : L R
Sampling rate: 48.0 kHz
Frame rate : 31.250 FPS (1536 SPF)
Compression mode : Lossy
Stream size: 415 MiB (1%)
Title: DD 2.0
Language : English
Service kind : Complete Main
Default: No
Forced : No

Text #1
ID : 4
Format : UTF-8
Codec ID : S_TEXT/UTF8
Codec ID/Info: UTF-8 Plain Text
Duration : 1 h 28 min
Bit rate : 63 b/s
Count of elements: 1092
Stream size: 40.8 KiB (0%)
Title: English-SRT
Language : English
Default: Yes
Forced : No

Text #2
ID : 5
Format : PGS
Muxing mode: zlib
Codec ID : S_HDMV/PGS
Codec ID/Info: Picture based subtitle format used on BDs/HD-DVDs
Duration : 1 h 28 min
Bit rate : 41.0 kb/s
Count of elements: 2346
Stream size: 25.9 MiB (0%)
Title: English-PGS
Language : English
Default: No
Forced : No

Text #3
ID : 6
Format : PGS
Muxing mode: zlib
Codec ID : S_HDMV/PGS
Codec ID/Info: Picture based subtitle format used on BDs/HD-DVDs
Duration : 1 h 30 min
Bit rate : 61.1 kb/s
Count of elements: 3192
Stream size: 39.3 MiB (0%)
Title: English-SDH-PGS
Language : English
Default: No
Forced : No

Menu
00:00:00.000 : :Chapter 01
00:08:00.208 : :Chapter 02
00:18:14.375 : :Chapter 03
00:25:27.333 : :Chapter 04
00:31:47.458 : :Chapter 05
00:38:20.292 : :Chapter 06
00:45:58.958 : :Chapter 07
00:52:51.250 : :Chapter 08
01:04:29.667 : :Chapter 09
01:10:36.500 : :Chapter 10
01:18:22.750 : :Chapter 11
01:27:37.083 : :Chapter 12






The.Ladykillers.1955.OAR.2160p.BluRay.x265.10bit.SDR.DTS-HD.MA.2.0-SWTYBLZ.zip
还没有人收藏过本帖~
最新回复 (0)
返回