如资源无法下载,请在「交流」反馈!

[2014][欧美][剧情][WEB-1080P]校园舞蹈 School.Dance.2014.1080p.AMZN.WEBRip.DDP5.1.x264-NOGRP 6.56GB


帖子完整标题:校园舞蹈 School.Dance.2014.1080p.AMZN.WEBRip.DDP5.1.x264-NOGRP 6.56GB



◎译  名 校园舞蹈
◎片  名 School Dance
◎年  代 2014
◎产  地 美国
◎类  别 剧情 / 喜剧 / 音乐
◎语  言 英语
◎上映日期 
◎IMDb评分4.5/10 from 1415 users
◎IMDb链接https://www.imdb.com/title/tt2179936/
◎豆瓣评分 /10 from 0 users
◎豆瓣链接 https://movie.douban.com/subject/25818690/
◎导  演 尼克·卡农 Nick Cannon
◎编  剧 尼克·卡农 Nick Cannon
◎主  演 凯文·哈特 Kevin Hart
     维尔摩·瓦尔德拉玛 Wilmer Valderrama
     鲍比·J·汤普森 Bobb'e J. Thompson
     艾弗连·莱米雷斯 Efren Ramirez
     莉安娜·门多萨 Liana Mendoza
     梅莉莎·莫莉娜洛 Melissa Molinaro

◎标  签 喜剧

◎简  介

  暂无相关剧情介绍

Video
ID : 1
Format : AVC
Format/Info: Advanced Video Codec
Format profile : [email protected]
Format settings: CABAC / 4 Ref Frames
Format settings, CABAC : Yes
Format settings, Reference frames: 4 frames
Codec ID : V_MPEG4/ISO/AVC
Duration : 1 h 26 min
Bit rate : 10.3 Mb/s
Width: 1 920 pixels
Height : 1 080 pixels
Display aspect ratio : 16:9
Frame rate mode: Constant
Frame rate : 23.976 (24000/1001/189150) FPS
Color space: YUV
Chroma subsampling : 4:2:0
Bit depth: 8 bits
Scan type: Progressive
Bits/(Pixel*Frame) : 0.206
Stream size: 6.17 GiB (94%)
Default: Yes
Forced : No
Color range: Limited
Color primaries: BT.709
Transfer characteristics : BT.709
Matrix coefficients: BT.709

Audio
ID : 2
Format : E-AC-3
Format/Info: Enhanced AC-3
Commercial name: Dolby Digital Plus
Codec ID : A_EAC3
Duration : 1 h 26 min
Bit rate mode: Constant
Bit rate : 640 kb/s
Channel(s) : 6 channels
Channel layout : L R C LFE Ls Rs
Sampling rate: 48.0 kHz
Frame rate : 31.250 FPS (1536 SPF)
Compression mode : Lossy
Stream size: 394 MiB (6%)
Language : English
Service kind : Complete Main
Default: Yes
Forced : No

Text
ID : 3
Format : UTF-8
Codec ID : S_TEXT/UTF8
Codec ID/Info: UTF-8 Plain Text
Duration : 1 h 24 min
Bit rate : 90 b/s
Count of elements: 1494
Stream size: 55.9 KiB (0%)
Language : English
Default: Yes
Forced : No






School.Dance.2014.1080p.AMZN.WEBRip.DDP5.1.x264-NOGRP.zip
还没有人收藏过本帖~
最新回复 (0)
返回
发新帖
即将对游客闭站,请注册账号备用!
影音屋为您提供最新的720P、1080P、2K、4K、原盘高清电影下载,内部交流社区,欢迎体验。影音屋,更多好电影待您发现!
加入福利电报群 加入福利企鹅群 淘宝天猫漏洞单