如资源无法下载,请在「交流」反馈!

[更 早][其他][动作][BD-1080P]義膽群英 Just.Heroes.1989.CHINESE.1080p.BluRay.x264-HANDJOB 8.52GB


帖子完整标题:義膽群英 Just.Heroes.1989.CHINESE.1080p.BluRay.x264-HANDJOB 8.52GB



◎译  名 义胆群英/Just Heroes/龙蛇争霸
◎片  名 義膽群英
◎年  代 1989
◎产  地 中国香港
◎类  别 动作
◎语  言 粤语
◎上映日期 1989-09-14(中国香港)
◎IMDb评分6.5/10 from 859 users
◎IMDb链接https://www.imdb.com/title/tt0094351/
◎豆瓣评分 7.0/10 from 4314 users
◎豆瓣链接 https://movie.douban.com/subject/1299057/
◎片  长 97分钟
◎导  演 吴宇森 John Woo / 午马 Wu Ma
◎编  剧 侯志强 Chi-Keung Hau / 倪匡 Kuang Ni
◎主  演 姜大卫 David Chiang
     李修贤 Danny Lee
     午马 Wu Ma
     陈观泰 Kuan Tai Chen
     赵雷 Lei Zhao
     黄霑 James Wong
     邝美云 Cally Kwong
     狄龙 Lung Ti
     周星驰 Stephen Chow
     恬妞 Niu Tien
     岳华 Hua Yueh
     倪震 Joe Nieh
     董骠 Bill Tung
     成奎安 Fui-On Shing
     秦沛 Paul Chun
     袁和平 Woo-ping Yuen
     谷峰 Feng Ku
     罗烈 Lieh Lo
     杜玉明 Yuming Du
     元彬 Bun Yuen
     冯克安 Hark-On Fung
     田青 Ching Tien
     刘家荣 Chia Yung Liu
     王俊棠 Ricky Wong Chun-Tong
     郑雷 Lei Cheng
     金霏 Tina Fei Chin
     黄柏文 Parkman Wong
     唐佳 Chia Tang
     江岛 Tao Chiang
     张午郎 John Cheung
     冯雪瑞 Hsueh-Yui Feng
     郑康业 Kang-Yeh Cheng
     夏占士 James Ha
     吴少雄 Alan Ng
     徐婉薇 Debbre Tsui
     洪同剑 Tung-Kim Hung
     钟荣 Chung Wing
     林志泰 Chi Tai Lam

◎标  签 周星驰 | 香港 | 吴宇森 | 香港电影 | 姜大卫 | 动作 | 李修贤 | 黑帮

◎简  介

  某社团老大乘车夜归途中遭人枪杀,凶手不知去向。该社团围绕继承人问题展开争论,为避免出现分裂与争执,社团元老马公(午马 饰)与王律师(黄霑 饰)商议,委托老大之名指定正直勤奋的阿修(李修贤 饰)为帮会继承人。
  
  另一方面,与阿修同期的阿泰(陈观泰 饰)某日接到老大司机的电话,称阿修为刺杀老大的幕后指示。阿泰的小弟小奇(周星驰 饰)听到录音后恼羞成怒,发誓要阿修付出代价。一场裹挟了黑帮阴谋仇杀和兄弟情谊的战争随即展开……

Video
ID : 1
Format : AVC
Format/Info: Advanced Video Codec
Format profile : [email protected]
Format settings: CABAC / 4 Ref Frames
Format settings, CABAC : Yes
Format settings, Reference frames: 4 frames
Codec ID : V_MPEG4/ISO/AVC
Duration : 1 h 37 min
Bit rate : 11.8 Mb/s
Width: 1 916 pixels
Height : 1 028 pixels
Display aspect ratio : 1.85:1
Frame rate mode: Constant
Frame rate : 24.000 FPS
Color space: YUV
Chroma subsampling : 4:2:0
Bit depth: 8 bits
Scan type: Progressive
Bits/(Pixel*Frame) : 0.250
Stream size: 8.06 GiB (95%)
Writing library: x264 core 157 r2935 545de2f
Encoding settings: cabac=1 / ref=4 / deblock=1:-3:-3 / analyse=0x3:0x133 / me=umh / subme=10 / psy=1 / psy_rd=1.00:0.00 / mixed_ref=1 / me_range=32 / chroma_me=1 / trellis=2 / 8x8dct=1 / cqm=0 / deadzone=21,11 / fast_pskip=0 / chroma_qp_offset=-2 / threads=32 / lookahead_threads=8 / sliced_threads=0 / nr=0 / decimate=0 / interlaced=0 / bluray_compat=0 / constrained_intra=0 / bframes=16 / b_pyramid=2 / b_adapt=2 / b_bias=0 / direct=3 / weightb=1 / open_gop=0 / weightp=2 / keyint=240 / keyint_min=24 / scenecut=40 / intra_refresh=0 / rc_lookahead=60 / rc=crf / mbtree=0 / crf=17.0 / qcomp=0.60 / qpmin=0 / qpmax=69 / qpstep=4 / vbv_maxrate=62500 / vbv_bufsize=78125 / crf_max=0.0 / nal_hrd=none / filler=0 / ip_ratio=1.40 / pb_ratio=1.30 / aq=2:1.00
Default: Yes
Forced : No
Color range: Limited
Color primaries: BT.709
Transfer characteristics : BT.709
Matrix coefficients: BT.709

Audio
ID : 2
Format : AC-3
Format/Info: Audio Coding 3
Commercial name: Dolby Digital
Codec ID : A_AC3
Duration : 1 h 37 min
Bit rate mode: Constant
Bit rate : 640 kb/s
Channel(s) : 6 channels
Channel layout : L R C LFE Ls Rs
Sampling rate: 48.0 kHz
Frame rate : 31.250 FPS (1536 SPF)
Compression mode : Lossy
Stream size: 447 MiB (5%)
Language : Chinese
Service kind : Complete Main
Default: Yes
Forced : No

Text #1
ID : 3
Format : UTF-8
Codec ID : S_TEXT/UTF8
Codec ID/Info: UTF-8 Plain Text
Duration : 1 h 36 min
Bit rate : 36 b/s
Count of elements: 1306
Stream size: 26.0 KiB (0%)
Language : English
Default: Yes
Forced : No

Text #2
ID : 4
Format : PGS
Muxing mode: zlib
Codec ID : S_HDMV/PGS
Codec ID/Info: Picture based subtitle format used on BDs/HD-DVDs
Duration : 1 h 37 min
Bit rate : 24.3 kb/s
Count of elements: 2174
Stream size: 16.9 MiB (0%)
Title: Chinese Simplified
Language : Chinese
Default: No
Forced : No

Text #3
ID : 5
Format : PGS
Muxing mode: zlib
Codec ID : S_HDMV/PGS
Codec ID/Info: Picture based subtitle format used on BDs/HD-DVDs
Duration : 1 h 37 min
Bit rate : 26.0 kb/s
Count of elements: 2174
Stream size: 18.1 MiB (0%)
Title: Chinese Traditional
Language : Chinese
Default: No
Forced : No

Menu
00:00:00.000 : :Chapter 1
00:09:39.625 : :Chapter 2
00:21:40.083 : :Chapter 3
00:30:45.792 : :Chapter 4
00:37:49.833 : :Chapter 5
00:47:43.458 : :Chapter 6
00:57:07.500 : :Chapter 7
01:02:21.542 : :Chapter 8
01:10:38.917 : :Chapter 9
01:17:21.292 : :Chapter 10
01:25:09.250 : :Chapter 11
01:36:42.292 : :Chapter 12






Just.Heroes.1989.CHINESE.1080p.BluRay.x264-HANDJOB.zip
还没有人收藏过本帖~
最新回复 (0)
返回
发新帖
即将对游客闭站,请注册账号备用!
影音屋为您提供最新的720P、1080P、2K、4K、原盘高清电影下载,内部交流社区,欢迎体验。影音屋,更多好电影待您发现!
加入福利电报群 加入福利企鹅群 淘宝天猫漏洞单