如资源无法下载,请在「交流」反馈!

[更 早][其他][爱情][BD-1080P]两栖人 The.Amphibian.Man.1962.RUSSIAN.1080p.BluRay.x264-HANDJOB 7.11GB


帖子完整标题:两栖人 The.Amphibian.Man.1962.RUSSIAN.1080p.BluRay.x264-HANDJOB 7.11GB



◎译  名 两栖人/Amphibian Man/Chelovek Amfibiya
◎片  名 Человек-амфибия
◎年  代 1962
◎产  地 苏联
◎类  别 爱情 / 科幻 / 奇幻
◎语  言 俄语
◎上映日期 1962-01-03(苏联)
◎IMDb评分7.1/10 from 2143 users
◎IMDb链接https://www.imdb.com/title/tt0055844/
◎豆瓣评分 7.5/10 from 212 users
◎豆瓣链接 https://movie.douban.com/subject/1661509/
◎片  长 95分钟
◎导  演 弗拉基米尔·切博塔廖夫 Vladimir Chebotaryov / 根纳季·卡赞斯基 Gennadi Kazansky
◎编  剧 Aleksandr Ksenofontov / Aleksandr Belyaev / 阿列克谢·卡普勒 Aleksei Kapler
◎主  演 尼科莱·西蒙诺夫 Nikolai Simonov
     安娜斯塔西亚·维尔金斯卡娅 Anastasiya Vertinskaya
     弗拉德连·达维多夫 Vladlen Davydov
     尤里·梅德韦杰夫 Yuri Medvedev
     米哈伊尔·科扎科夫 Mikhail Kozakov
     弗拉基米尔·科列涅夫 Vladimir Korenev
     Sergei Boyarsky
     Georgi Tusuzov

◎标  签 科幻 | 苏联 | 苏联电影 | 爱情 | 1960s | 水陆两栖人 | 幻想 | 经典

◎简  介

  名医萨列瓦托尔把小鲨鱼的腮移植到一个印第安男孩身上,使他成为一个既能在陆地上生活 、又能在水下栖居的两栖人。后来,“水母号”船主佐利达捕获了两栖人,把他变成自己的奴隶,强迫他到海底采珍珠。两栖人被人们叫做“海魔”,终于他不堪船主折磨,找机会逃了出来藏在医生家里。佐利达的雇工巴里塔扎尔得知两栖人是自己的亲生儿子,想通过法院索回儿子。同时,教会和船主佐利达想要牟取横财,也到法院控告医生,说他做非法的活体解剖,造成残废,而且亵渎了神灵。医生和两栖人被捕入狱。在狱中,两栖人肺部受到损害,离开水他将慢慢死去... 医生替监狱长的妻子治好了病,监狱长为了表示感谢,悄悄把两栖人放出了监狱。
  
  两栖人告别亲人,告别可爱的姑娘,转身投入汹涌澎湃的大海...

Video
ID : 1
Format : AVC
Format/Info: Advanced Video Codec
Format profile : [email protected]
Format settings: CABAC / 5 Ref Frames
Format settings, CABAC : Yes
Format settings, Reference frames: 5 frames
Codec ID : V_MPEG4/ISO/AVC
Duration : 1 h 36 min
Bit rate : 9 965 kb/s
Width: 1 480 pixels
Height : 1 078 pixels
Display aspect ratio : 1.373
Frame rate mode: Constant
Frame rate : 23.976 (24000/1001/189150) FPS
Color space: YUV
Chroma subsampling : 4:2:0
Bit depth: 8 bits
Scan type: Progressive
Bits/(Pixel*Frame) : 0.261
Stream size: 6.71 GiB (94%)
Writing library: x264 core 157 r2935 545de2f
Encoding settings: cabac=1 / ref=5 / deblock=1:-3:-3 / analyse=0x3:0x133 / me=umh / subme=10 / psy=1 / psy_rd=1.00:0.00 / mixed_ref=1 / me_range=32 / chroma_me=1 / trellis=2 / 8x8dct=1 / cqm=0 / deadzone=21,11 / fast_pskip=0 / chroma_qp_offset=-2 / threads=12 / lookahead_threads=3 / sliced_threads=0 / nr=0 / decimate=0 / interlaced=0 / bluray_compat=0 / constrained_intra=0 / bframes=16 / b_pyramid=2 / b_adapt=2 / b_bias=0 / direct=3 / weightb=1 / open_gop=0 / weightp=2 / keyint=240 / keyint_min=24 / scenecut=40 / intra_refresh=0 / rc_lookahead=60 / rc=crf / mbtree=0 / crf=19.0 / qcomp=0.60 / qpmin=0 / qpmax=69 / qpstep=4 / vbv_maxrate=62500 / vbv_bufsize=78125 / crf_max=0.0 / nal_hrd=none / filler=0 / ip_ratio=1.40 / pb_ratio=1.30 / aq=2:1.00
Default: Yes
Forced : No
Color range: Limited
Color primaries: BT.709
Transfer characteristics : BT.709
Matrix coefficients: BT.709

Audio #1
ID : 2
Format : AAC LC
Format/Info: Advanced Audio Codec Low Complexity
Codec ID : A_AAC-2
Duration : 1 h 36 min
Bit rate : 144 kb/s
Channel(s) : 1 channel
Channel layout : C
Sampling rate: 48.0 kHz
Frame rate : 46.875 FPS (1024 SPF)
Compression mode : Lossy
Stream size: 100.0 MiB (1%)
Language : Russian
Default: Yes
Forced : No

Audio #2
ID : 3
Format : AC-3
Format/Info: Audio Coding 3
Commercial name: Dolby Digital
Codec ID : A_AC3
Duration : 1 h 36 min
Bit rate mode: Constant
Bit rate : 448 kb/s
Channel(s) : 2 channels
Channel layout : L R
Sampling rate: 48.0 kHz
Frame rate : 31.250 FPS (1536 SPF)
Compression mode : Lossy
Stream size: 309 MiB (4%)
Title: English Dub
Language : English
Service kind : Complete Main
Default: No
Forced : No

Text
ID : 4
Format : UTF-8
Codec ID : S_TEXT/UTF8
Codec ID/Info: UTF-8 Plain Text
Duration : 1 h 36 min
Bit rate : 31 b/s
Count of elements: 659
Stream size: 22.0 KiB (0%)
Language : English
Default: Yes
Forced : No

Menu
00:00:00.000 : :Chapter 1
00:03:35.632 : :Chapter 2
00:10:10.610 : :Chapter 3
00:18:44.415 : :Chapter 4
00:23:54.058 : :Chapter 5
00:31:00.359 : :Chapter 6
00:35:35.842 : :Chapter 7
00:42:37.180 : :Chapter 8
00:49:00.020 : :Chapter 9
00:56:12.411 : :Chapter 10
01:00:03.266 : :Chapter 11
01:08:54.297 : :Chapter 12
01:13:59.977 : :Chapter 13
01:20:03.882 : :Chapter 14
01:26:44.866 : :Chapter 15






The.Amphibian.Man.1962.RUSSIAN.1080p.BluRay.x264-HANDJOB.zip
还没有人收藏过本帖~
最新回复 (0)
返回
发新帖
即将对游客闭站,请注册账号备用!
影音屋为您提供最新的720P、1080P、2K、4K、原盘高清电影下载,内部交流社区,欢迎体验。影音屋,更多好电影待您发现!
加入福利电报群 加入福利企鹅群 淘宝天猫漏洞单