如资源无法下载,请在「交流」反馈!

[更 早][欧美][恐怖][BD-1080P]消失的房子 The.House.That.Vanished.1974.1080p.BluRay.x264.FLAC.2.0-HANDJOB 7.43GB


帖子完整标题:消失的房子 The.House.That.Vanished.1974.1080p.BluRay.x264.FLAC.2.0-HANDJOB 7.43GB



◎译  名 消失的房子/Scream... and Die!
◎片  名 The House That Vanished
◎年  代 1973
◎产  地 英国
◎类  别 恐怖
◎语  言 英语
◎上映日期 1973
◎IMDb评分5.1/10 from 424 users
◎IMDb链接https://www.imdb.com/title/tt0070655/
◎豆瓣评分 /10 from 0 users
◎豆瓣链接 https://movie.douban.com/subject/5054727/
◎片  长 Australia: 103 分钟
◎导  演 何塞·拉蒙·拉拉斯 José Ramón Larraz
◎编  剧 德里克·福特 Derek Ford
◎主  演 Andrea Allan
     Richard Aylen
     雷蒙德·扬 Raymond Young

◎标  签 血腥 | 恐怖 | 英国电影 | 英国 | 惊悚 | 准备下

◎简  介

  A young model and her petty thief boyfriend find their way through the English fog to a backwoods manor in hopes of looting it. What they find instead is murder, and when the model attempts to find the house again, her efforts come to naught.

Video
ID : 1
Format : AVC
Format/Info: Advanced Video Codec
Format profile : [email protected]
Format settings: CABAC / 4 Ref Frames
Format settings, CABAC : Yes
Format settings, Reference frames: 4 frames
Codec ID : V_MPEG4/ISO/AVC
Duration : 1 h 28 min
Bit rate : 11.7 Mb/s
Width: 1 920 pixels
Height : 1 080 pixels
Display aspect ratio : 16:9
Frame rate mode: Constant
Frame rate : 23.976 (24000/1001/189150) FPS
Color space: YUV
Chroma subsampling : 4:2:0
Bit depth: 8 bits
Scan type: Progressive
Bits/(Pixel*Frame) : 0.236
Stream size: 7.27 GiB (98%)
Writing library: x264 core 157 r2935 545de2f
Encoding settings: cabac=1 / ref=4 / deblock=1:-3:-3 / analyse=0x3:0x133 / me=umh / subme=10 / psy=1 / psy_rd=1.00:0.00 / mixed_ref=1 / me_range=32 / chroma_me=1 / trellis=2 / 8x8dct=1 / cqm=0 / deadzone=21,11 / fast_pskip=0 / chroma_qp_offset=-2 / threads=18 / lookahead_threads=4 / sliced_threads=0 / nr=0 / decimate=0 / interlaced=0 / bluray_compat=0 / constrained_intra=0 / bframes=16 / b_pyramid=2 / b_adapt=2 / b_bias=0 / direct=3 / weightb=1 / open_gop=0 / weightp=1 / keyint=240 / keyint_min=24 / scenecut=40 / intra_refresh=0 / rc_lookahead=60 / rc=crf / mbtree=0 / crf=20.5 / qcomp=0.60 / qpmin=0 / qpmax=69 / qpstep=4 / vbv_maxrate=62500 / vbv_bufsize=78125 / crf_max=0.0 / nal_hrd=none / filler=0 / ip_ratio=1.40 / pb_ratio=1.30 / aq=2:1.00
Default: Yes
Forced : No
Color range: Limited
Color primaries: BT.709
Transfer characteristics : BT.709
Matrix coefficients: BT.709

Audio
ID : 2
Format : FLAC
Format/Info: Free Lossless Audio Codec
Codec ID : A_FLAC
Duration : 1 h 28 min
Bit rate mode: Variable
Bit rate : 243 kb/s
Channel(s) : 2 channels
Sampling rate: 48.0 kHz
Frame rate : 11.719 FPS (4096 SPF)
Bit depth: 16 bits
Compression mode : Lossless
Stream size: 155 MiB (2%)
Writing library: libFLAC 1.2.1 (UTC 2007-09-17)
Language : English
Default: Yes
Forced : No

Menu
00:00:00.000 : :Chapter 1
00:07:47.217 : :Chapter 2
00:14:09.349 : :Chapter 3
00:24:55.452 : :Chapter 4
00:33:34.930 : :Chapter 5
00:45:15.880 : :Chapter 6
00:55:54.935 : :Chapter 7
01:04:16.728 : :Chapter 8
01:15:17.263 : :Chapter 9
01:28:14.873 : :Chapter 10






The.House.That.Vanished.1974.1080p.BluRay.x264.FLAC.2.0-HANDJOB.zip
还没有人收藏过本帖~
最新回复 (0)
返回