如资源无法下载,请在「交流」反馈!

[2018][欧美][剧情][BD-720P]最后一个男孩 The.Last.Boy.2019.720p.BluRay.x264-FREEMAN 2.20GB


帖子完整标题:最后一个男孩 The.Last.Boy.2019.720p.BluRay.x264-FREEMAN 2.20GB



◎译  名 最后一个男孩
◎片  名 The Last Boy
◎年  代 2018
◎产  地 英国
◎类  别 剧情 / 科幻
◎语  言 英语
◎上映日期 2019-01-08(美国)
◎IMDb评分5.9/10 from 6292 users
◎IMDb链接https://www.imdb.com/title/tt4157728/
◎豆瓣评分 4.2/10 from 420 users
◎豆瓣链接 https://movie.douban.com/subject/27197449/
◎片  长 87分钟
◎主  演 鲁克·高斯 Luke Goss
     安娜·威尔逊-琼斯 Anna Wilson-Jones
     彼得·吉尼斯 Peter Guinness
     弗林·艾伦 Flynn Allen

◎标  签 科幻 | 英国 | 末世 | 美国 | 灾难 | 软科幻 | 电影 | 2018

◎简  介

  在世界的尽头,一个小男孩的垂死母亲送他去寻找一个地方,满足愿望。《最后的男孩》是一部科幻剧,灵感来自13世纪苏菲派神秘主义诗人鲁米的诗歌。

Video
ID : 1
Format : AVC
Format/Info: Advanced Video Codec
Format profile : [email protected]
Format settings: CABAC / 8 Ref Frames
Format settings, CABAC : Yes
Format settings, Reference frames: 8 frames
Codec ID : V_MPEG4/ISO/AVC
Duration : 1 h 27 min
Bit rate : 2 975 kb/s
Width: 1 280 pixels
Height : 680 pixels
Display aspect ratio : 1.882
Frame rate mode: Constant
Frame rate : 24.000 FPS
Color space: YUV
Chroma subsampling : 4:2:0
Bit depth: 8 bits
Scan type: Progressive
Bits/(Pixel*Frame) : 0.142
Stream size: 1.81 GiB (82%)
Writing library: x264 core 161 r3018 db0d417
Encoding settings: cabac=1 / ref=8 / deblock=1:-3:-3 / analyse=0x3:0x133 / me=umh / subme=9 / psy=1 / psy_rd=1.00:0.00 / mixed_ref=1 / me_range=16 / chroma_me=1 / trellis=2 / 8x8dct=1 / cqm=0 / deadzone=21,11 / fast_pskip=1 / chroma_qp_offset=-2 / threads=9 / lookahead_threads=1 / sliced_threads=0 / nr=0 / decimate=1 / interlaced=0 / bluray_compat=0 / constrained_intra=0 / bframes=3 / b_pyramid=2 / b_adapt=2 / b_bias=0 / direct=3 / weightb=1 / open_gop=0 / weightp=2 / keyint=250 / keyint_min=24 / scenecut=40 / intra_refresh=0 / rc_lookahead=60 / rc=crf / mbtree=1 / crf=17.0 / qcomp=0.60 / qpmin=0 / qpmax=69 / qpstep=4 / ip_ratio=1.40 / aq=3:0.80
Language : English
Default: Yes
Forced : No
Color range: Limited
Matrix coefficients: BT.709

Audio
ID : 2
Format : AC-3
Format/Info: Audio Coding 3
Commercial name: Dolby Digital
Codec ID : A_AC3
Duration : 1 h 27 min
Bit rate mode: Constant
Bit rate : 640 kb/s
Channel(s) : 6 channels
Channel layout : L R C LFE Ls Rs
Sampling rate: 48.0 kHz
Frame rate : 31.250 FPS (1536 SPF)
Compression mode : Lossy
Stream size: 399 MiB (18%)
Title: AC3
Language : English
Service kind : Complete Main
Default: Yes
Forced : No

Menu
00:00:00.000 : en:00:00:00.000
00:11:19.000 : en:00:11:19.000
00:22:34.000 : en:00:22:34.000
00:32:55.000 : en:00:32:55.000
00:45:15.000 : en:00:45:15.000
00:55:58.000 : en:00:55:58.000
01:05:06.000 : en:01:05:06.000
01:15:23.000 : en:01:15:23.000
01:25:07.000 : en:01:25:07.000






The.Last.Boy.2019.720p.BluRay.x264-FREEMAN.zip
还没有人收藏过本帖~
最新回复 (0)
返回
发新帖
即将对游客闭站,请注册账号备用!
影音屋为您提供最新的720P、1080P、2K、4K、原盘高清电影下载,内部交流社区,欢迎体验。影音屋,更多好电影待您发现!
加入福利电报群 加入福利企鹅群 淘宝天猫漏洞单