如资源无法下载,请在「交流」反馈!

[更 早][日本][喜剧][WEB-1080P]公路狂飙 Adrenaline.Drive.1999.JAPANESE.1080p.WEBRip.x264-VXT 2.11GB


帖子完整标题:公路狂飙 Adrenaline.Drive.1999.JAPANESE.1080p.WEBRip.x264-VXT 2.11GB



◎译  名 公路狂飙/Adorenarin doraibu/Adrenaline Drive
◎片  名 アドレナリンドライブ
◎年  代 1999
◎产  地 日本
◎类  别 喜剧
◎语  言 日语
◎上映日期 1999-02-18(柏林国际电影节) / 1999-06-12(日本)
◎IMDb评分6.9/10 from 808 users
◎IMDb链接https://www.imdb.com/title/tt0197213/
◎豆瓣评分 7.0/10 from 406 users
◎豆瓣链接 https://movie.douban.com/subject/1788121/
◎片  长 112分钟
◎导  演 矢口史靖 Shinobu Yaguchi
◎编  剧 矢口史靖 Shinobu Yaguchi
◎主  演 安藤政信 Masanobu And?
     石田光 Hikari Ishida
     松重丰 Yutaka Matsushige
     诹访太朗 Tar? Suwa
     田中要次 Y?ji Tanaka
     瑞拉·阿芙罗狄蒂 Reila Aphrodite
     真野桐奈 Kirina Mano
     绪形干太 Kanta Ogata
     铃木卓尔 Takuji Suzuki
     德井优 Yu Tokui
     角替和枝 Kazue Tsunogae
     上田耕一 K?ichi Ueda
     长谷川朝晴 Tomoharu Hasegawa
     坂田聪 Tadashi Sakata
     六角慎司 Shinji Rokkaku

◎标  签 矢口史靖 | 日本 | 安藤政信 | 日本电影 | 青春 | 公路 | 1999 | 喜剧

◎简  介

  简评:听名字就像是SABU的电影一样,其实很多元素都挺像SABU惯用的。矢口晴靖的这部电影也是同样的轻松有趣,从情节上稍嫌俗套,两个窝囊的小人物莫名其妙的捡到两亿日元,同时又是遭遇黑帮堵截,一路磕磕绊绊,机缘巧合,最终小男女终成一对,开着跑车四处开心去了。典型的大团圆结局,贵在开心,情节也一直很轻松,节奏又很紧凑,很有趣的一个电影。适合放松神经的时候观看。两人住大酒店,喝最贵的红酒,女孩买衣服、做头发,瞬间麻雀变凤凰,太YY的一个电影。难得开心。演员方面则由安滕政信和石田光搭档。

Video
ID : 1
Format : AVC
Format/Info: Advanced Video Codec
Format profile : [email protected]
Format settings: CABAC / 4 Ref Frames
Format settings, CABAC : Yes
Format settings, Reference frames: 4 frames
Codec ID : avc1
Codec ID/Info: Advanced Video Coding
Duration : 1 h 50 min
Bit rate : 2 500 kb/s
Width: 1 920 pixels
Height : 1 040 pixels
Display aspect ratio : 1.85:1
Frame rate mode: Constant
Frame rate : 29.970 (29970/1000/189150) FPS
Color space: YUV
Chroma subsampling : 4:2:0
Bit depth: 8 bits
Scan type: Progressive
Bits/(Pixel*Frame) : 0.042
Stream size: 1.93 GiB (91%)
Writing library: x264 core 152 r2851M ba24899
Encoding settings: cabac=1 / ref=4 / deblock=1:-1:-1 / analyse=0x3:0x113 / me=umh / subme=9 / psy=1 / psy_rd=1.00:0.15 / mixed_ref=1 / me_range=24 / chroma_me=1 / trellis=2 / 8x8dct=1 / cqm=0 / deadzone=21,11 / fast_pskip=1 / chroma_qp_offset=-3 / threads=16 / lookahead_threads=4 / sliced_threads=0 / nr=0 / decimate=1 / interlaced=0 / bluray_compat=0 / constrained_intra=0 / bframes=3 / b_pyramid=2 / b_adapt=2 / b_bias=0 / direct=3 / weightb=1 / open_gop=0 / weightp=2 / keyint=250 / keyint_min=25 / scenecut=40 / intra_refresh=0 / rc_lookahead=50 / rc=2pass / mbtree=1 / bitrate=2500 / ratetol=1.0 / qcomp=0.60 / qpmin=0 / qpmax=69 / qpstep=4 / cplxblur=20.0 / qblur=0.5 / vbv_maxrate=31250 / vbv_bufsize=31250 / nal_hrd=none / filler=0 / ip_ratio=1.40 / aq=3:1.00
Encoded date : UTC 2021-01-09 14:24:12
Tagged date: UTC 2021-01-09 14:24:12
Codec configuration box: avcC

Audio
ID : 2
Format : AAC LC
Format/Info: Advanced Audio Codec Low Complexity
Codec ID : mp4a-40-2
Duration : 1 h 50 min
Duration_LastFrame : -11 ms
Bit rate mode: Constant
Bit rate : 224 kb/s
Channel(s) : 2 channels
Channel layout : L R
Sampling rate: 48.0 kHz
Frame rate : 46.875 FPS (1024 SPF)
Compression mode : Lossy
Stream size: 178 MiB (8%)
Language : Japanese
Default: Yes
Alternate group: 1
Encoded date : UTC 2021-01-09 14:24:12
Tagged date: UTC 2021-01-09 14:24:12






Adrenaline.Drive.1999.JAPANESE.1080p.WEBRip.x264-VXT.zip
还没有人收藏过本帖~
最新回复 (0)
返回