如资源无法下载,请在「交流」反馈!

[2019][欧美][剧情][WEB-1080P]伯德博士对悲伤诗人的建议 Dr.Birds.Advice.for.Sad.Poets.2021.1080p.AMZN.WEBRip.DDP5.1.x264-NO


帖子完整标题:伯德博士对悲伤诗人的建议 Dr.Birds.Advice.for.Sad.Poets.2021.1080p.AMZN.WEBRip.DDP5.1.x264-NOGRP 7.42GB



◎译  名 伯德博士对悲伤诗人的建议
◎片  名 Dr. Bird's Advice for Sad Poets
◎年  代 2019
◎产  地 美国
◎类  别 剧情
◎语  言 英语
◎上映日期 
◎IMDb链接https://www.imdb.com/title/tt3301314/
◎豆瓣评分 /10 from 0 users
◎豆瓣链接 https://movie.douban.com/subject/34822122/
◎导  演 Yaniv Raz
◎编  剧 Yaniv Raz
◎主  演 詹森·艾萨克 Jason Isaacs
     丽莎·艾德尔斯汀 Lisa Edelstein
     泰勒·拉塞尔 Taylor Russell
     大卫·阿奎特 David Arquette
     汤姆·威尔金森 Tom Wilkinson
     欧迪瑟亚斯·乔治亚迪斯 Odiseas Georgiadis
     卢卡斯·杰德·祖曼 Lucas Jade Zumann
     蔡斯·斯托克斯 Chase Stokes
     约翰·M·沙利文二世 John M. Sullivan II

◎标  签 JasonIsaacs | 電影 | 美国 | 为

◎简  介

  In the emotionally charged, wild and humorous world of sixteen year old James Whitman, we see his struggle to overcome anxiety and depression by seeking advice from Dr. Bird - an imaginary pigeon therapist - in the wake of his sister's disappearance.

Video
ID : 1
Format : AVC
Format/Info: Advanced Video Codec
Format profile : [email protected]
Format settings: CABAC / 4 Ref Frames
Format settings, CABAC : Yes
Format settings, Reference frames: 4 frames
Codec ID : V_MPEG4/ISO/AVC
Duration : 1 h 49 min
Bit rate mode: Constant
Bit rate : 9 063 kb/s
Nominal bit rate : 10 000 kb/s
Width: 1 920 pixels
Height : 1 080 pixels
Display aspect ratio : 16:9
Frame rate mode: Constant
Frame rate : 23.976 (24000/1001/189150) FPS
Color space: YUV
Chroma subsampling : 4:2:0
Bit depth: 8 bits
Scan type: Progressive
Bits/(Pixel*Frame) : 0.182
Stream size: 6.93 GiB (93%)
Default: Yes
Forced : No
Color range: Limited
Color primaries: BT.709
Transfer characteristics : BT.709
Matrix coefficients: BT.709

Audio
ID : 2
Format : E-AC-3
Format/Info: Enhanced AC-3
Commercial name: Dolby Digital Plus
Codec ID : A_EAC3
Duration : 1 h 49 min
Bit rate mode: Constant
Bit rate : 640 kb/s
Channel(s) : 6 channels
Channel layout : L R C LFE Ls Rs
Sampling rate: 48.0 kHz
Frame rate : 31.250 FPS (1536 SPF)
Compression mode : Lossy
Stream size: 501 MiB (7%)
Language : English
Service kind : Complete Main
Default: Yes
Forced : No






Dr.Birds.Advice.for.Sad.Poets.2021.1080p.AMZN.WEBRip.DDP5.1.x264-NOGRP.zip
还没有人收藏过本帖~
最新回复 (0)
返回