如资源无法下载,请在「交流」反馈!

[2013][欧美][科幻][WEB-1080P]战争之尘 Dust.of.War.2013.1080p.AMZN.WEBRip.DDP5.1.x264-iKA 6.26GB


帖子完整标题:战争之尘 Dust.of.War.2013.1080p.AMZN.WEBRip.DDP5.1.x264-iKA 6.26GB



◎译  名 战争之尘
◎片  名 Dust of War
◎年  代 2013
◎产  地 美国
◎类  别 科幻
◎语  言 英语
◎上映日期 2013-07-18
◎IMDb评分3.9/10 from 245 users
◎IMDb链接https://www.imdb.com/title/tt2051872/
◎豆瓣评分 4.2/10 from 35 users
◎豆瓣链接 https://movie.douban.com/subject/25884491/
◎导  演 安德鲁·凯特林格 Andrew Kightlinger
◎编  剧 安德鲁·凯特林格 Andrew Kightlinger
◎主  演 道格·琼斯 Doug Jones
     盖瑞·格拉汉姆 Gary Graham
     贝茨·怀尔德 Bates Wilder
     格里芬 Griffin
     阿波斯托洛斯·格里马尔米 Apostolos Gliarmis

◎标  签 科幻 | 美国电影 | 美国 | 奇幻 | 还好啦 | 浪费时间 | 差 | 动作

◎简  介

  多少世纪以来人们凝视星空,人们仰望星空疑惑是非只有他们存在。有一天,星星从空中坠落,燃起战火,一个外星种族入侵地球,给人们带来灭顶之灾。未被征服的土地,被暴君所统治,一名残忍的军阀迅速崛起,但是与此同时,有一个拥有强大秘密的孩子也出现了,她可以保佑这个世界,但是她自己并不知道,她被军队保护着,大家都相信她是和平先知,女孩长大了,她落入到了邪恶的将军的手中,拯救女孩,拯救全人类的任务也即将展开,故事就此开始了……

Video
ID : 1
Format : AVC
Format/Info: Advanced Video Codec
Format profile : [email protected]
Format settings: CABAC / 4 Ref Frames
Format settings, CABAC : Yes
Format settings, Reference frames: 4 frames
Codec ID : V_MPEG4/ISO/AVC
Duration : 1 h 31 min
Bit rate mode: Constant
Bit rate : 9 191 kb/s
Nominal bit rate : 10 000 kb/s
Width: 1 920 pixels
Height : 816 pixels
Display aspect ratio : 2.35:1
Frame rate mode: Constant
Frame rate : 23.976 (24000/1001/189150) FPS
Color space: YUV
Chroma subsampling : 4:2:0
Bit depth: 8 bits
Scan type: Progressive
Bits/(Pixel*Frame) : 0.245
Stream size: 5.85 GiB (93%)
Default: Yes
Forced : No
Color range: Limited
Color primaries: BT.709
Transfer characteristics : BT.709
Matrix coefficients: BT.709

Audio
ID : 2
Format : E-AC-3
Format/Info: Enhanced AC-3
Commercial name: Dolby Digital Plus
Codec ID : A_EAC3
Duration : 1 h 31 min
Bit rate mode: Constant
Bit rate : 640 kb/s
Channel(s) : 6 channels
Channel layout : L R C LFE Ls Rs
Sampling rate: 48.0 kHz
Frame rate : 31.250 FPS (1536 SPF)
Compression mode : Lossy
Stream size: 417 MiB (7%)
Language : English
Service kind : Complete Main
Default: Yes
Forced : No

Text
ID : 3
Format : UTF-8
Codec ID : S_TEXT/UTF8
Codec ID/Info: UTF-8 Plain Text
Duration : 1 h 25 min
Bit rate : 28 b/s
Count of elements: 935
Stream size: 18.1 KiB (0%)
Title: SDH
Language : English
Default: No
Forced : No






Dust.of.War.2013.1080p.AMZN.WEBRip.DDP5.1.x264-iKA.zip
还没有人收藏过本帖~
最新回复 (0)
返回