如资源无法下载,请在「交流」反馈!

[2019][欧美][惊悚][BD-1080P]和平 Peace.2019.1080p.BluRay.x264-FREEMAN 9.63GB


帖子完整标题:和平 Peace.2019.1080p.BluRay.x264-FREEMAN 9.63GB



◎译  名 和平/Recon/幽灵战场(台)
◎片  名 Peace
◎年  代 2019
◎产  地 美国
◎类  别 惊悚 / 传记 / 战争
◎语  言 英语
◎上映日期 2019-10-26(奥斯汀电影节) / 2020-11-10(美国)
◎IMDb评分4.2/10 from 256 users
◎IMDb链接https://www.imdb.com/title/tt7713810/
◎豆瓣评分 5.0/10 from 122 users
◎豆瓣链接 https://movie.douban.com/subject/30152169/
◎片  长 98分钟
◎导  演 罗伯特·大卫·波特 Robert David Port
◎编  剧 Richard Bausch / 罗伯特·大卫·波特 Robert David Port
◎主  演 亚历山大·路德韦格 Alexander Ludwig
     RJ费瑟斯顿豪 RJ Fetherstonhaugh
     克里斯·布罗楚 Chris Brochu
     克里斯蒂·柏克 Christie Burke
     泰勒·海涅斯 Tyler Hynes
     山姆·基利 Sam Keeley
     洛奇林·莫罗 Lochlyn Munro
     弗兰科·内罗 Franco Nero

◎标  签 战争 | 二战 | 美国 | 2019 | 真实事件改编 | 剧情 | 美国电影 | 惊悚

◎简  介

  It follows four American soldiers set out on the grueling ascent of an Italian mountainside in the closing days of WWII, haunted by their evil sergeant’s cold-blooded murder of a young woman and with an old Italian man of uncertain loyalties as their guide.
  
  
  
  电影讲述四名美国士兵在二战最后几天,在意大利山腰的艰苦攀登中,被一名邪恶冷血的军官捕获,后来得到一位意志不明的忠心耿耿的老人作为他们的引路人。

Video
ID : 1
Format : AVC
Format/Info: Advanced Video Codec
Format profile : [email protected]
Format settings: CABAC / 5 Ref Frames
Format settings, CABAC : Yes
Format settings, Reference frames: 5 frames
Codec ID : V_MPEG4/ISO/AVC
Duration : 1 h 35 min
Bit rate : 12.1 Mb/s
Width: 1 920 pixels
Height : 808 pixels
Display aspect ratio : 2.40:1
Frame rate mode: Constant
Frame rate : 23.976 (24000/1001/189150) FPS
Color space: YUV
Chroma subsampling : 4:2:0
Bit depth: 8 bits
Scan type: Progressive
Bits/(Pixel*Frame) : 0.325
Stream size: 8.07 GiB (84%)
Writing library: x264 core 161 r3018 db0d417
Encoding settings: cabac=1 / ref=5 / deblock=1:-3:-3 / analyse=0x3:0x133 / me=umh / subme=9 / psy=1 / psy_rd=1.00:0.00 / mixed_ref=1 / me_range=16 / chroma_me=1 / trellis=2 / 8x8dct=1 / cqm=0 / deadzone=21,11 / fast_pskip=1 / chroma_qp_offset=-2 / threads=18 / lookahead_threads=1 / sliced_threads=0 / nr=0 / decimate=1 / interlaced=0 / bluray_compat=0 / constrained_intra=0 / bframes=3 / b_pyramid=2 / b_adapt=2 / b_bias=0 / direct=3 / weightb=1 / open_gop=0 / weightp=2 / keyint=250 / keyint_min=23 / scenecut=40 / intra_refresh=0 / rc_lookahead=60 / rc=crf / mbtree=1 / crf=19.0 / qcomp=0.60 / qpmin=0 / qpmax=69 / qpstep=4 / ip_ratio=1.40 / aq=3:0.80
Language : English
Default: Yes
Forced : No
Color range: Limited
Matrix coefficients: BT.709

Audio
ID : 2
Format : DTS XLL
Format/Info: Digital Theater Systems
Commercial name: DTS-HD Master Audio
Codec ID : A_DTS
Duration : 1 h 35 min
Bit rate mode: Variable
Bit rate : 2 335 kb/s
Channel(s) : 6 channels
Channel layout : C L R Ls Rs LFE
Sampling rate: 48.0 kHz
Frame rate : 93.750 FPS (512 SPF)
Bit depth: 16 bits
Compression mode : Lossless
Stream size: 1.56 GiB (16%)
Title: DTS-HD
Language : English
Default: Yes
Forced : No

Menu
00:00:00.000 : en:00:00:00.000
00:11:20.555 : en:00:11:20.555
00:23:53.974 : en:00:23:53.974
00:35:35.675 : en:00:35:35.675
00:47:58.375 : en:00:47:58.375
01:01:38.653 : en:01:01:38.653
01:11:39.295 : en:01:11:39.295
01:22:37.119 : en:01:22:37.119






Peace.2019.1080p.BluRay.x264-FREEMAN.zip
还没有人收藏过本帖~
最新回复 (0)
返回