如资源无法下载,请在「交流」反馈!

[2017][其他][动作][BD-720P]瓦伦丁:黑暗复仇者 Valentine.The.Dark.Avenger.2017.720p.BluRay.x264-GETiT 2.35GB


帖子完整标题:瓦伦丁:黑暗复仇者 Valentine.The.Dark.Avenger.2017.720p.BluRay.x264-GETiT 2.35GB



◎译  名 瓦伦丁:黑暗复仇者
◎片  名 Valentine
◎年  代 2017
◎产  地 印度尼西亚
◎类  别 动作
◎语  言 印度尼西亚语,英语
◎上映日期 2017-11-23(印度尼西亚)
◎IMDb评分4.7/10 from 577 users
◎IMDb链接https://www.imdb.com/title/tt5305352/
◎豆瓣评分 /10 from 0 users
◎豆瓣链接 https://movie.douban.com/subject/30294945/
◎片  长 105分钟
◎导  演 乌巴·福克斯 Ubay Fox
◎主  演 马修·塞特尔 Matthew Settle
     因陀罗·比乌罗 Indra Birowo
     雷洛伊·奥斯马尼 Leroy Osmani
     约书亚·潘德拉基 Joshua Pandelaki
     埃斯特尔·林登 Estelle Linden

◎标  签 动作 | 女主 | 印尼 | 3M稀影基地论坛 | 3M稀影基地 | 2017 | 2010s

◎简  介

  Batavia City, a beautiful city that no longer safely inhabited. Robbery, violence, and a variety of increasingly rampant criminality. In the midst of this chaotic city, Srimaya, a cafe waitress who dreams of becoming an actress never thought that dream would change her life. Her meeting with Bono, a film director and his friend, Wawan, will take her on a dangerous adventure full of thrilling action with lives at stake. Turning her from an ordinary girl into Batavia City heroine of hope, Valentine.

Video
ID : 1
Format : AVC
Format/Info: Advanced Video Codec
Format profile : [email protected]
Format settings: CABAC / 8 Ref Frames
Format settings, CABAC : Yes
Format settings, Reference frames: 8 frames
Codec ID : V_MPEG4/ISO/AVC
Duration : 1 h 37 min
Bit rate : 2 795 kb/s
Width: 1 280 pixels
Height : 536 pixels
Display aspect ratio : 2.40:1
Frame rate mode: Constant
Frame rate : 24.000 FPS
Color space: YUV
Chroma subsampling : 4:2:0
Bit depth: 8 bits
Scan type: Progressive
Bits/(Pixel*Frame) : 0.170
Stream size: 1.91 GiB (81%)
Writing library: x264 core 161 r3018 db0d417
Encoding settings: cabac=1 / ref=8 / deblock=1:-3:-3 / analyse=0x3:0x133 / me=umh / subme=9 / psy=1 / psy_rd=1.00:0.00 / mixed_ref=1 / me_range=16 / chroma_me=1 / trellis=2 / 8x8dct=1 / cqm=0 / deadzone=21,11 / fast_pskip=1 / chroma_qp_offset=-2 / threads=17 / lookahead_threads=1 / sliced_threads=0 / nr=0 / decimate=1 / interlaced=0 / bluray_compat=0 / constrained_intra=0 / bframes=3 / b_pyramid=2 / b_adapt=2 / b_bias=0 / direct=3 / weightb=1 / open_gop=0 / weightp=2 / keyint=250 / keyint_min=24 / scenecut=40 / intra_refresh=0 / rc_lookahead=60 / rc=crf / mbtree=1 / crf=17.0 / qcomp=0.60 / qpmin=0 / qpmax=69 / qpstep=4 / ip_ratio=1.40 / aq=3:0.80
Language : English
Default: Yes
Forced : No
Color range: Limited
Matrix coefficients: BT.709

Audio
ID : 2
Format : AC-3
Format/Info: Audio Coding 3
Commercial name: Dolby Digital
Codec ID : A_AC3
Duration : 1 h 37 min
Bit rate mode: Constant
Bit rate : 640 kb/s
Channel(s) : 6 channels
Channel layout : L R C LFE Ls Rs
Sampling rate: 48.0 kHz
Frame rate : 31.250 FPS (1536 SPF)
Compression mode : Lossy
Stream size: 447 MiB (19%)
Title: ac3
Language : English
Service kind : Complete Main
Default: Yes
Forced : No

Text
ID : 3
Format : PGS
Muxing mode: zlib
Codec ID : S_HDMV/PGS
Codec ID/Info: Picture based subtitle format used on BDs/HD-DVDs
Duration : 1 h 31 min
Bit rate : 9 454 b/s
Count of elements: 1226
Stream size: 6.16 MiB (0%)
Title: sub
Language : German
Default: No
Forced : No

Menu
00:00:00.000 : en:00:00:00.000
00:15:36.917 : en:00:15:36.917
00:22:33.500 : en:00:22:33.500
00:32:26.708 : en:00:32:26.708
00:40:40.292 : en:00:40:40.292
00:50:16.292 : en:00:50:16.292
00:57:15.542 : en:00:57:15.542
01:05:01.625 : en:01:05:01.625
01:16:07.458 : en:01:16:07.458
01:27:12.208 : en:01:27:12.208
01:31:28.083 : en:01:31:28.083






Valentine.The.Dark.Avenger.2017.720p.BluRay.x264-GETiT.zip
还没有人收藏过本帖~
最新回复 (0)
返回