如资源无法下载,请在「交流」反馈!

[2019][欧美][剧情][WEB-1080P]河魂/在河上 Once.Upon.a.River.2019.1080p.WEB-DL.DD5.1.H264-FGT 3.19GB


帖子完整标题:河魂/在河上 Once.Upon.a.River.2019.1080p.WEB-DL.DD5.1.H264-FGT 3.19GB



◎译  名 河魂/在河上
◎片  名 Once Upon a River
◎年  代 2019
◎产  地 美国
◎类  别 剧情
◎语  言 英语
◎上映日期 2020-10-09(美国)
◎IMDb评分6.8/10 from 64 users
◎IMDb链接https://www.imdb.com/title/tt3917094/
◎豆瓣评分 /10 from 0 users
◎豆瓣链接 https://movie.douban.com/subject/34835948/
◎片  长 92分钟
◎主  演 约翰·阿什顿 John Ashton
     塔坦卡·米恩斯 Tatanka Means
     阿居阿瓦克·卡帕绪西特 Ajuawak Kapashesit
     琳赛·普尔斯菲 Lindsay Pulsipher
     多米尼克·博加特 Dominic Bogart
     萨姆·史特拉雷 Sam Straley
     科布恩·格罗斯 Coburn Goss
     约瑟芬·戴克 Josephine Decker
     Shane Simmons
     Holli Hopkins

◎简  介

  After her father’s violent death, Native American teenager Margo Crane flees down Michigan’s Stark River in search of her estranged mother. On the way, she encounters allies, enemies, danger, and the beauty of nature, all while coming to grips with her past and her own identity. A Midwestern Gothic coming-of-age fable set along the riverbanks, Chicago musician-filmmaker Haroula Rose’s debut feature is an evocative marriage of Winter’s Bone and Huckleberry Finn.

Video
ID : 1
Format : AVC
Format/Info: Advanced Video Codec
Format profile : [email protected]
Format settings: CABAC / 5 Ref Frames
Format settings, CABAC : Yes
Format settings, Reference frames: 5 frames
Codec ID : V_MPEG4/ISO/AVC
Duration : 1 h 32 min
Bit rate : 4 569 kb/s
Width: 1 916 pixels
Height : 808 pixels
Display aspect ratio : 2.40:1
Frame rate mode: Constant
Frame rate : 23.976 (24000/1001/189150) FPS
Color space: YUV
Chroma subsampling : 4:2:0
Bit depth: 8 bits
Scan type: Progressive
Bits/(Pixel*Frame) : 0.123
Stream size: 2.94 GiB (92%)
Language : English
Default: Yes
Forced : No
Color range: Limited
Color primaries: BT.709
Transfer characteristics : BT.709
Matrix coefficients: BT.709

Audio
ID : 2
Format : AC-3
Format/Info: Audio Coding 3
Commercial name: Dolby Digital
Codec ID : A_AC3
Duration : 1 h 32 min
Bit rate mode: Constant
Bit rate : 384 kb/s
Channel(s) : 6 channels
Channel layout : L R C LFE Ls Rs
Sampling rate: 48.0 kHz
Frame rate : 31.250 FPS (1536 SPF)
Compression mode : Lossy
Stream size: 253 MiB (8%)
Title: DD 5.1
Language : English
Service kind : Complete Main
Default: Yes
Forced : No

Text
ID : 3
Format : UTF-8
Codec ID : S_TEXT/UTF8
Codec ID/Info: UTF-8 Plain Text
Duration : 1 h 25 min
Bit rate : 27 b/s
Count of elements: 627
Stream size: 17.2 KiB (0%)
Language : English
Default: Yes
Forced : No






Once.Upon.a.River.2019.1080p.WEB-DL.DD5.1.H264-FGT.zip
还没有人收藏过本帖~
最新回复 (0)
返回