如资源无法下载,请在「交流」反馈!

[2019][欧美][动作][WEB-720P]救赎之日 Redemption.Day.2021.720p.AMZN.WEBRip.DDP5.1.x264-NTG 2.01GB


帖子完整标题:救赎之日 Redemption.Day.2021.720p.AMZN.WEBRip.DDP5.1.x264-NTG 2.01GB



◎译  名 救赎之日/Operation Redemption
◎片  名 Redemption Day
◎年  代 2019
◎产  地 美国
◎类  别 动作 / 爱情
◎上映日期 2021-01-08(美国)
◎IMDb评分4.7/10 from 72 users
◎IMDb链接https://www.imdb.com/title/tt4439620/
◎豆瓣评分 /10 from 0 users
◎豆瓣链接 https://movie.douban.com/subject/34801506/
◎片  长 99分钟
◎导  演 希罕·哈吉 Hicham Hajji
◎编  剧 希罕·哈吉 Hicham Hajji / 乔治·桑德斯 George Saunders / 莱莫尔·赛文 Lemore Syvan
◎主  演 安迪·加西亚 Andy Garcia
     赛琳达·斯万 Serinda Swan
     罗伯特·克耐普 Robert Knepper
     马丁·唐文 Martin Donovan
     埃涅·赫德森 Ernie Hudson
     加里·杜尔丹 Gary Dourdan
     布拉德利·格雷格 Bradley Gregg
     萨米·纳塞利 Samy Naceri
     迈克尔·帕特里克·莱恩 Michael Patrick Lane
     索妮亚·奥卡沙 Sonia Okacha

◎简  介

  一支美国海军陆战队潜入恐怖组织以拯救美国人质。

Video
ID : 1
Format : AVC
Format/Info: Advanced Video Codec
Format profile : [email protected]
Format settings: CABAC / 4 Ref Frames
Format settings, CABAC : Yes
Format settings, Reference frames: 4 frames
Codec ID : V_MPEG4/ISO/AVC
Duration : 1 h 39 min
Bit rate mode: Constant
Bit rate : 2 240 kb/s
Nominal bit rate : 6 000 kb/s
Width: 1 248 pixels
Height : 520 pixels
Display aspect ratio : 2.40:1
Frame rate mode: Constant
Frame rate : 23.976 (24000/1001/189150) FPS
Color space: YUV
Chroma subsampling : 4:2:0
Bit depth: 8 bits
Scan type: Progressive
Bits/(Pixel*Frame) : 0.144
Stream size: 1.56 GiB (78%)
Default: Yes
Forced : No
Color range: Limited
Color primaries: BT.709
Transfer characteristics : BT.709
Matrix coefficients: BT.709

Audio
ID : 2
Format : E-AC-3
Format/Info: Enhanced AC-3
Commercial name: Dolby Digital Plus
Codec ID : A_EAC3
Duration : 1 h 39 min
Bit rate mode: Constant
Bit rate : 640 kb/s
Channel(s) : 6 channels
Channel layout : L R C LFE Ls Rs
Sampling rate: 48.0 kHz
Frame rate : 31.250 FPS (1536 SPF)
Compression mode : Lossy
Stream size: 458 MiB (22%)
Language : English
Service kind : Complete Main
Default: Yes
Forced : No

Text #1
ID : 3
Format : UTF-8
Codec ID : S_TEXT/UTF8
Codec ID/Info: UTF-8 Plain Text
Duration : 1 h 32 min
Bit rate : 51 b/s
Count of elements: 1160
Stream size: 35.1 KiB (0%)
Title: SDH
Language : English
Default: No
Forced : No

Text #2
ID : 4
Format : UTF-8
Codec ID : S_TEXT/UTF8
Codec ID/Info: UTF-8 Plain Text
Duration : 1 h 38 min
Bit rate : 44 b/s
Count of elements: 931
Stream size: 32.2 KiB (0%)
Language : French
Default: No
Forced : No






Redemption.Day.2021.720p.AMZN.WEBRip.DDP5.1.x264-NTG.zip
还没有人收藏过本帖~
最新回复 (0)
返回