如资源无法下载,请在「交流」反馈!

[2006][其他][喜剧][BD-1080P]好奇的乔治/好奇猴乔治 Curious.George.2006.1080p.BluRay.X264-AMIABLE 4.37GB


帖子完整标题:好奇的乔治/好奇猴乔治 Curious.George.2006.1080p.BluRay.X264-AMIABLE 4.37GB



◎译  名 好奇的乔治/好奇猴乔治(台)
◎片  名 Curious George
◎年  代 2006
◎产  地 美国,德国
◎类  别 喜剧 / 动画 / 冒险
◎语  言 英语
◎上映日期 2006-02-10(美国) / 2006-05-25(德国)
◎IMDb评分6.5/10 from 15387 users
◎IMDb链接https://www.imdb.com/title/tt0381971/
◎豆瓣评分 7.7/10 from 2949 users
◎豆瓣链接 https://movie.douban.com/subject/1432616/
◎片  长 86分钟
◎导  演 马修·奥卡拉汉 Matthew O'Callaghan
◎编  剧 肯恩·考夫曼 Ken Kaufman / 麦克·韦柏 Mike Werb / 玛格丽特·雷 Margret Rey / H·A·雷 H.A. Rey
◎主  演 弗兰克·维尔克 Frank Welker
     威尔·法瑞尔 Will Ferrell
     德鲁·巴里摩尔 Drew Barrymore
     迪克·范·戴克 Dick Van Dyke
     尤金·列维 Eugene Levy
     大卫·克罗斯 David Cross
     比利·维斯特 Billy West
     杰夫·贝内特 Jeff Bennett
     迈克尔·索里奇 Michael Sorich
     埃德·欧罗斯 Ed O'Ross
     琼·普莱怀特 Joan Plowright
     凯斯·索西 Kath Soucie
     克林特·霍华德 Clint Howard
     谢恩·鲍梅尔 Shane Baumel
     提米娅-乔伊·比蒂 Timyra-Joi Beatty
     杰西·弗劳尔 Jessie Flower
     亚历山大·古尔德 Alexander Gould
     海莉·诺艾儿·强森 Hailey Noelle Johnson
     阿芮尔·温特 Ariel Winter
     Nadia Lewis
     理查德·埃帕卡 Richard Epcar
     乔伊·达奎利亚 Joey D'Auria
     埃迪·弗里森 Eddie Frierson
     特雷瓦·埃迪内 Treva Etienne
     里夫·霍顿 Rif Hutton
     凯特琳·麦肯纳-威尔金森 Caitlin McKenna-Wilkinson

◎标  签 动画 | 美国 | 2006 | 卡通 | 动物 | 喜剧 | 儿童 | 冒险

◎简  介

  影片改编自童书故事《好奇小猴乔治》,这只可爱的小猴子由玛格丽特&H.A.雷夫妇创造。
  
  博物馆导游泰德热爱自己的工作,其博学热忱的讲解博得了带学生来此参观的漂亮女教师麦琪。老馆长却宣布了一个不幸的消息:由于参观的人数太少,博物馆面临着关张的窘境,唯一的拯救办法就是推出一项其他博物馆前所未见的新奇展品。老馆长出示给泰德一本带有地图的神秘日记,表明非洲扎格瓦部落迷失的一处圣陵所在,只要从中带回一尊大型神像,博物馆就有救了。泰德乘着轮船向非洲出发,到了丛林后找到了地图所示的古老神像,但完全不像老馆长描述的那样宏伟。而此刻一只顽皮的小猴对泰德发生了兴趣,一直尾随着他。在泰德动身离开非洲时,小猴子也悄悄跟上了船。回国之后泰德接连遭遇了无家可归、继而失业,与这只小猴相依为命并为它起名乔治。最终泰德能不能找到传说中的神像?博物馆又是否能继续维持?

Video
ID : 1
Format : AVC
Format/Info: Advanced Video Codec
Format profile : [email protected]
Format settings: CABAC / 4 Ref Frames
Format settings, CABAC : Yes
Format settings, Reference frames: 4 frames
Codec ID : V_MPEG4/ISO/AVC
Duration : 1 h 27 min
Bit rate : 5 656 kb/s
Width: 1 920 pixels
Height : 1 040 pixels
Display aspect ratio : 1.85:1
Frame rate mode: Constant
Frame rate : 23.976 (24000/1001/189150) FPS
Color space: YUV
Chroma subsampling : 4:2:0
Bit depth: 8 bits
Scan type: Progressive
Bits/(Pixel*Frame) : 0.118
Stream size: 3.36 GiB (77%)
Writing library: x264 core 144 r2525 40bb568
Encoding settings: cabac=1 / ref=4 / deblock=1:0:0 / analyse=0x3:0x113 / me=umh / subme=8 / psy=1 / psy_rd=1.00:0.00 / mixed_ref=1 / me_range=16 / chroma_me=1 / trellis=1 / 8x8dct=1 / cqm=0 / deadzone=21,11 / fast_pskip=1 / chroma_qp_offset=-2 / threads=12 / lookahead_threads=2 / sliced_threads=0 / nr=0 / decimate=1 / interlaced=0 / bluray_compat=0 / constrained_intra=0 / bframes=3 / b_pyramid=2 / b_adapt=2 / b_bias=0 / direct=3 / weightb=1 / open_gop=0 / weightp=2 / keyint=240 / keyint_min=24 / scenecut=40 / intra_refresh=0 / rc_lookahead=50 / rc=2pass / mbtree=1 / bitrate=5656 / ratetol=1.0 / qcomp=0.60 / qpmin=0 / qpmax=69 / qpstep=4 / cplxblur=20.0 / qblur=0.5 / ip_ratio=1.40 / aq=1:1.00
Language : English
Default: Yes
Forced : No

Audio
ID : 2
Format : DTS
Format/Info: Digital Theater Systems
Codec ID : A_DTS
Duration : 1 h 27 min
Bit rate mode: Constant
Bit rate : 1 509 kb/s
Channel(s) : 6 channels
ChannelLayout_Original : C L R Ls Rs LFE
Sampling rate: 48.0 kHz
Frame rate : 93.750 FPS (512 SPF)
Bit depth: 24 bits
Compression mode : Lossy
Stream size: 942 MiB (21%)
Language : English
Default: Yes
Forced : No

Text #1
ID : 3
Format : UTF-8
Codec ID : S_TEXT/UTF8
Codec ID/Info: UTF-8 Plain Text
Title: SDH
Language : English
Default: No
Forced : No

Text #2
ID : 4
Format : UTF-8
Codec ID : S_TEXT/UTF8
Codec ID/Info: UTF-8 Plain Text
Language : English
Default: No
Forced : No

Menu
00:00:00.000 : en:00:00:00.000
00:04:02.701 : en:00:04:02.701
00:06:23.925 : en:00:06:23.925
00:11:38.323 : en:00:11:38.323
00:15:14.872 : en:00:15:14.872
00:18:27.231 : en:00:18:27.231
00:21:21.322 : en:00:21:21.322
00:25:11.635 : en:00:25:11.635
00:30:11.393 : en:00:30:11.393
00:35:00.765 : en:00:35:00.765
00:40:41.397 : en:00:40:41.397
00:46:10.393 : en:00:46:10.393
00:51:26.875 : en:00:51:26.875
00:56:25.674 : en:00:56:25.674
00:59:00.829 : en:00:59:00.829
01:04:51.638 : en:01:04:51.638
01:08:38.323 : en:01:08:38.323
01:12:33.683 : en:01:12:33.683
01:14:21.624 : en:01:14:21.624
01:18:00.217 : en:01:18:00.217






Curious.George.2006.1080p.BluRay.X264-AMIABLE.zip
还没有人收藏过本帖~
最新回复 (0)
返回
发新帖
即将对游客闭站,请注册账号备用!
影音屋为您提供最新的720P、1080P、2K、4K、原盘高清电影下载,内部交流社区,欢迎体验。影音屋,更多好电影待您发现!
加入福利电报群 加入福利企鹅群 淘宝天猫漏洞单