如资源无法下载,请在「交流」反馈!

[2019][欧美][剧情][BD-1080P]爱尔兰人 The.Irishman.2019.1080p.BluRay.x264-TOOSHORT 25.68GB


帖子完整标题:爱尔兰人 The.Irishman.2019.1080p.BluRay.x264-TOOSHORT 25.68GB



◎译  名 爱尔兰人/I Heard You Paint Houses/听说你刷房子了/爱尔兰杀手(港)
◎片  名 The Irishman
◎年  代 2019
◎产  地 美国
◎类  别 剧情 / 传记 / 犯罪
◎语  言 英语,意大利语,拉丁语,西班牙语,德语
◎上映日期 2019-09-27(纽约电影节) / 2019-11-01(美国点映) / 2019-11-27(美国网络)
◎IMDb评分7.9/10 from 314487 users
◎IMDb链接https://www.imdb.com/title/tt1302006/
◎豆瓣评分 8.8/10 from 206010 users
◎豆瓣链接 https://movie.douban.com/subject/6981153/
◎片  长 209分钟
◎导  演 马丁·斯科塞斯 Martin Scorsese
◎编  剧 查尔斯·布兰特 Charles Brandt / 斯蒂文·泽里安 Steven Zaillian
◎主  演 罗伯特·德尼罗 Robert De Niro
     阿尔·帕西诺 Al Pacino
     乔·佩西 Joe Pesci
     安娜·帕奎因 Anna Paquin
     杰西·普莱蒙 Jesse Plemons
     哈威·凯特尔 Harvey Keitel
     斯蒂芬·格拉汉姆 Stephen Graham
     鲍比·坎纳瓦尔 Bobby Cannavale
     杰克·休斯顿 Jack Huston
     阿莱卡萨·帕拉迪诺 Aleksa Palladino
     凯瑟琳·纳杜奇 Kathrine Narducci
     多米尼克·隆巴多兹 Domenick Lombardozzi
     雷·罗马诺 Ray Romano
     塞巴斯蒂安·马尼斯科 Sebastian Maniscalco
     杰克·霍夫曼 Jake Hoffman
     保罗·本-维克托 Paul Ben-Victor
     斯蒂芬妮·库尔特祖巴 Stephanie Kurtzuba
     莎伦·菲弗 Sharon Pfeiffer
     路易斯·坎瑟米 Louis Cancelmi
     茵迪亚·恩能加 India Ennenga
     J.C.麦肯泽 J.C. MacKenzie
     巴里·普赖默斯 Barry Primus
     吉姆·诺顿 Jim Norton
     盖里·巴萨拉巴 Gary Basaraba
     玛格丽特·安妮·佛罗伦斯 Margaret Anne Florence
     约翰·斯库蒂 John Scurti
     约翰·塞纳迭姆博 John Cenatiempo
     大卫·阿隆·贝克 David Aaron Baker
     桃乐丝·麦卡锡 Doris McCarthy
     凯文·凯恩 Kevin Kane
     加里·帕斯托雷 Garry Pastore
     约瑟夫·罗素 Joseph Russo
     凯文·奥罗克 Kevin O'Rourke
     娜塔莎·罗曼诺娃 Natasha Romanova
     杰里米·卢克 Jeremy Luc
     凯莉·P·威廉姆斯 Kelly P. Williams
     詹妮弗·马奇 Jennifer Mudge
     保罗·鲍格才 Paul Borghese
     蒂姆·内夫 Tim Neff
     斯蒂芬·梅尔勒 Stephen Mailer
     克雷格·文森特 Craig Vincent
     比利·史密斯 Billy Smith
     布莱斯·科里根 Blaise Corrigan
     斯泰西·爱丽丝·科恩 Stacey Alyse Cohen
     吉诺·卡法雷利 Gino Cafarelli
     拉里·罗曼诺 Larry Romano
     罗伯特·富纳罗 Robert Funaro
     维罗妮卡·阿利奇诺 Veronica Alicino
     克劳黛特·拉利 Claudette Lali
     詹姆斯·洛林兹 James Lorinz
     阿什莉·诺斯 Ashley North
     肯·斯拉迪克 Ken Sladyk
     帕特里克·加洛 Patrick Gallo
     杰伊·斯特凡 Jai Stefan
     路西·加里娜 Lucy Gallina
     丹尼·A·阿贝卡瑟尔 Danny A. Abeckaser
     阿尔伯特·科布罗夫斯基 Albert Kobrovsky

◎标  签 黑帮 | 犯罪 | 美国 | 传记 | 剧情 | 人性 | 2019 | Netflix

◎简  介

  《爱尔兰人》为马丁·斯科塞斯执导的传奇巨制,罗伯特·德尼罗、阿尔·帕西诺和乔·佩西主演。通过二战老兵弗兰克·希兰的视角,讲述了战后美国有组织犯罪的故事。弗兰克·希兰是一名骗子和杀手,曾经在 20 世纪最恶名昭彰的人物身边工作。该电影跨越数十年,记录了美国历史上最大的悬案之一,即传奇工会领袖吉米·霍法失踪案,以宏大的故事之旅,展现有组织犯罪的隐秘通道:其内部运作、仇敌以及与主流政治的瓜葛。

◎获奖情况

  第92届奥斯卡金像奖 ?(2020)
  最佳影片(提名) 马丁·斯科塞斯?/?简·罗森塔尔?/?罗伯特·德尼罗?/?艾玛·特林格·科斯考夫
  最佳导演(提名) 马丁·斯科塞斯
  最佳男配角(提名) 阿尔·帕西诺?/?乔·佩西
  最佳改编剧本(提名) 斯蒂文·泽里安
  最佳摄影(提名) 罗德里戈·普列托
  最佳剪辑(提名) 塞尔玛·斯昆梅克
  最佳视觉效果(提名) 莱安德罗·埃斯特贝比科纳?/?斯蒂芬·雷克?/?巴勃罗·赫尔曼?/?内尔森·塞普维达
  最佳艺术指导(提名)
  最佳服装设计(提名) 桑迪·鲍威尔?/?克里斯托弗·彼得森
  
  第77届金球奖 ?(2020)
  电影类最佳剧情片(提名)
  电影类最佳导演(提名) 马丁·斯科塞斯
  电影类最佳男配角(提名) 阿尔·帕西诺?/?乔·佩西
  电影类最佳编剧(提名) 斯蒂文·泽里安
  
  第73届英国电影学院奖 ?(2020)
  电影奖最佳影片(提名)
  电影奖最佳导演(提名) 马丁·斯科塞斯
  电影奖最佳男配角(提名) 阿尔·帕西诺?/?乔·佩西
  电影奖最佳改编剧本(提名) 斯蒂文·泽里安
  电影奖最佳摄影(提名) 罗德里戈·普列托
  电影奖最佳剪辑(提名) 塞尔玛·斯昆梅克
  电影奖最佳服装设计(提名) 桑迪·鲍威尔?/?克里斯托弗·彼得森
  电影奖最佳艺术指导(提名) 鲍勃·肖?/?里贾纳·格雷夫斯
  电影奖最佳特殊视觉效果(提名)
  
  第72届美国导演工会奖 ?(2020)
  最佳电影导演(提名) 马丁·斯科塞斯
  
  第26届美国演员工会奖 ?(2020)
  电影奖最佳男配角(提名) 阿尔·帕西诺?/?乔·佩西
  电影奖最佳群戏(提名)
  电影最佳特技群戏(提名)
  
  第72届美国编剧工会奖 ?(2020)
  电影奖最佳改编剧本(提名) 斯蒂文·泽里安
  
  第31届美国制片人工会奖 ?(2020)
  最佳电影制片人奖(提名)
  
  第34届美国摄影协会奖 ?(2020)
  电影长片最佳摄影(提名) 罗德里戈·普列托
  
  第70届美国剪辑工会奖 ?(2020)
  剧情片最佳剪辑(提名) 塞尔玛·斯昆梅克
  
  第24届美国艺术指导工会奖 ?(2020)
  电影奖最佳历史电影艺术指导(提名) 鲍勃·肖
  
  第7届美国化妆及发型设计工会奖 ?(2020)
  电影类最佳特效化妆(提名)
  
  第67届美国音效剪辑协会奖 ?(2020)
  金卷轴奖最佳电影对白剪辑(提名)
  
  第18届美国视觉效果协会奖 ?(2020)
  最佳电影辅助视觉效果
  最佳电影视觉效果合成
  
  第56届美国声音效果协会奖 ?(2020)
  真人电影最佳音效(提名)
  
  第85届纽约影评人协会奖 ?(2019)
  最佳影片
  最佳男配角 乔·佩西
  
  第91届美国国家评论协会奖 ?(2019)
  最佳影片
  最佳改编剧本 斯蒂文·泽里安
  
  第25届美国评论家选择电影奖 ?(2020)
  最佳影片(提名)
  最佳导演(提名) 马丁·斯科塞斯
  最佳男主角(提名) 罗伯特·德尼罗
  最佳男配角(提名) 阿尔·帕西诺?/?乔·佩西
  最佳群戏
  最佳改编剧本(提名) 斯蒂文·泽里安
  最佳摄影(提名)
  最佳剪辑(提名)
  最佳配乐(提名)
  最佳美术指导(提名)
  最佳服装设计(提名)
  最佳发型化妆(提名)
  最佳视觉效果(提名)
  
  第20届美国电影学会奖 ?(2019)
  年度佳片
  
  第24届金卫星奖 ?(2020)
  电影部门最佳男配角(提名) 乔·佩西
  电影部门最佳改编剧本(提名) 斯蒂文·泽里安
  电影部门最佳原创配乐(提名)
  电影部门最佳摄影(提名)
  电影部门最佳视觉效果(提名)
  电影部门最佳剪辑(提名)
  
  第23届好莱坞电影奖 ?(2019)
  年度男配角 阿尔·帕西诺
  年度视觉效果 巴勃罗·赫尔曼
  
  第54届美国国家影评人协会奖 ?(2020)
  最佳导演(提名) 马丁·斯科塞斯
  最佳男配角(提名) 乔·佩西
  
  第40届伦敦影评人协会奖 ?(2020)
  年度电影(提名)
  年度导演(提名) 马丁·斯科塞斯
  年度编剧(提名) 斯蒂文·泽里安
  年度男主角(提名) 罗伯特·德尼罗
  年度男配角 乔·佩西
  年度男配角(提名) 阿尔·帕西诺
  
  第40届波士顿影评人协会奖 ?(2019)
  最佳男配角(提名) 乔·佩西
  最佳剪辑 塞尔玛·斯昆梅克
  
  第45届洛杉矶影评人协会奖 ?(2019)
  最佳影片(提名)
  最佳导演(提名) 马丁·斯科塞斯
  最佳男配角(提名) 乔·佩西
  
  第32届芝加哥影评人协会奖 ?(2019)
  最佳影片(提名)
  最佳导演(提名) 马丁·斯科塞斯
  最佳男主角(提名) 罗伯特·德尼罗
  最佳男配角(提名) 阿尔·帕西诺?/?乔·佩西
  最佳改编剧本(提名) 斯蒂文·泽里安
  最佳剪辑
  最佳视觉效果(提名)
  
  第13届底特律影评人协会奖 ?(2019)
  最佳导演 马丁·斯科塞斯
  最佳男配角 乔·佩西
  
  第4届亚特兰大影评人协会奖 ?(2019)
  十佳影片
  最佳群戏
  
  第23届美国在线影评人协会奖 ?(2020)
  最佳影片(提名)
  最佳导演(提名) 马丁·斯科塞斯
  最佳男主角(提名) 罗伯特·德尼罗
  最佳男配角(提名) 阿尔·帕西诺?/?乔·佩西
  最佳改编剧本 斯蒂文·泽里安
  最佳剪辑(提名) 塞尔玛·斯昆梅克
  最佳摄影(提名) 罗德里戈·普列托
  
  第6届豆瓣电影年度榜单 ?(2019)
  年度冷门佳片
  
  第5届豆瓣电影年度榜单 ?(2018)
  最值得期待的外语电影(提名)

Video
ID : 1
Format : AVC
Format/Info: Advanced Video Codec
Format profile : [email protected]
Format settings: CABAC / 4 Ref Frames
Format settings, CABAC : Yes
Format settings, Reference frames: 4 frames
Codec ID : V_MPEG4/ISO/AVC
Duration : 3 h 29 min
Bit rate : 12.8 Mb/s
Width: 1 920 pixels
Height : 1 038 pixels
Display aspect ratio : 1.85:1
Frame rate mode: Constant
Frame rate : 23.976 (24000/1001/189150) FPS
Color space: YUV
Chroma subsampling : 4:2:0
Bit depth: 8 bits
Scan type: Progressive
Bits/(Pixel*Frame) : 0.267
Stream size: 18.7 GiB (73%)
Writing library: x264 core 161 r3027 4121277
Encoding settings: cabac=1 / ref=4 / deblock=1:-3:-3 / analyse=0x3:0x133 / me=umh / subme=9 / psy=1 / psy_rd=1.00:0.00 / mixed_ref=1 / me_range=48 / chroma_me=1 / trellis=2 / 8x8dct=1 / cqm=0 / deadzone=21,11 / fast_pskip=0 / chroma_qp_offset=-2 / threads=32 / lookahead_threads=2 / sliced_threads=0 / nr=0 / decimate=0 / interlaced=0 / bluray_compat=0 / constrained_intra=0 / bframes=3 / b_pyramid=2 / b_adapt=2 / b_bias=0 / direct=3 / weightb=1 / open_gop=0 / weightp=2 / keyint=250 / keyint_min=23 / scenecut=40 / intra_refresh=0 / rc_lookahead=60 / rc=crf / mbtree=1 / crf=18.0 / qcomp=0.60 / qpmin=0 / qpmax=69 / qpstep=4 / ip_ratio=1.40 / aq=3:0.80
Default: Yes
Forced : No
Color range: Limited
Matrix coefficients: BT.709

Audio #1
ID : 2
Format : MLP FBA 16-ch
Format/Info: Meridian Lossless Packing FBA with 16-channel presentation
Commercial name: Dolby TrueHD with Dolby Atmos
Codec ID : A_TRUEHD
Duration : 3 h 29 min
Bit rate mode: Variable
Bit rate : 4 164 kb/s
Maximum bit rate : 7 932 kb/s
Channel(s) : 8 channels
Channel layout : L R C LFE Ls Rs Lb Rb
Sampling rate: 48.0 kHz
Frame rate : 1 200.000 FPS (40 SPF)
Compression mode : Lossless
Stream size: 6.08 GiB (24%)
Title: Atmos 7.1
Language : English
Default: Yes
Forced : No
Number of dynamic objects: 15
Bed channel count: 1 channel
Bed channel configuration: LFE

Audio #2
ID : 3
Format : AC-3
Format/Info: Audio Coding 3
Commercial name: Dolby Digital
Codec ID : A_AC3
Duration : 3 h 29 min
Bit rate mode: Constant
Bit rate : 448 kb/s
Channel(s) : 6 channels
Channel layout : L R C LFE Ls Rs
Sampling rate: 48.0 kHz
Frame rate : 31.250 FPS (1536 SPF)
Compression mode : Lossy
Stream size: 670 MiB (3%)
Service kind : Complete Main
Default: No
Forced : No

Audio #3
ID : 7
Format : AAC LC
Format/Info: Advanced Audio Codec Low Complexity
Codec ID : A_AAC-2
Duration : 3 h 29 min
Bit rate : 111 kb/s
Channel(s) : 2 channels
Channel layout : L R
Sampling rate: 48.0 kHz
Frame rate : 46.875 FPS (1024 SPF)
Compression mode : Lossy
Delay relative to video: 9 ms
Stream size: 165 MiB (1%)
Title: Commentary
Language : English
Default: No
Forced : No

Text #1
ID : 4
Format : UTF-8
Codec ID : S_TEXT/UTF8
Codec ID/Info: UTF-8 Plain Text
Duration : 3 h 20 min
Bit rate : 81 b/s
Count of elements: 3500
Stream size: 119 KiB (0%)
Title: Stripped SRT
Language : English
Default: No
Forced : No

Text #2
ID : 5
Format : UTF-8
Codec ID : S_TEXT/UTF8
Codec ID/Info: UTF-8 Plain Text
Duration : 3 h 27 min
Bit rate : 85 b/s
Count of elements: 3739
Stream size: 129 KiB (0%)
Title: SDH SRT
Language : English
Default: No
Forced : No

Text #3
ID : 6
Format : PGS
Muxing mode: zlib
Codec ID : S_HDMV/PGS
Codec ID/Info: Picture based subtitle format used on BDs/HD-DVDs
Duration : 3 h 27 min
Bit rate : 69.7 kb/s
Count of elements: 7480
Stream size: 103 MiB (0%)
Title: English SDH
Language : English
Default: No
Forced : No

Menu
00:00:00.000 : en:Chapter 01
00:04:37.736 : en:Chapter 02
00:08:42.272 : en:Chapter 03
00:12:11.648 : en:Chapter 04
00:17:37.014 : en:Chapter 05
00:25:13.554 : en:Chapter 06
00:29:41.071 : en:Chapter 07
00:39:21.442 : en:Chapter 08
00:46:31.664 : en:Chapter 09
00:54:23.010 : en:Chapter 10
00:59:44.289 : en:Chapter 11
01:11:16.481 : en:Chapter 12
01:22:17.933 : en:Chapter 13
01:31:00.622 : en:Chapter 14
01:38:54.470 : en:Chapter 15
01:48:45.561 : en:Chapter 16
01:58:00.907 : en:Chapter 17
02:07:42.280 : en:Chapter 18
02:13:30.794 : en:Chapter 19
02:24:02.592 : en:Chapter 20
02:31:10.812 : en:Chapter 21
02:34:28.426 : en:Chapter 22
02:50:18.667 : en:Chapter 23
02:55:26.433 : en:Chapter 24
03:04:12.250 : en:Chapter 25
03:13:43.695 : en:Chapter 26
03:19:21.408 : en:Chapter 27






The.Irishman.2019.1080p.BluRay.x264-TOOSHORT.zip
还没有人收藏过本帖~
最新回复 (0)
返回
发新帖
即将对游客闭站,请注册账号备用!
影音屋为您提供最新的720P、1080P、2K、4K、原盘高清电影下载,内部交流社区,欢迎体验。影音屋,更多好电影待您发现!
加入福利电报群 加入福利企鹅群 淘宝天猫漏洞单