如资源无法下载,请在「交流」反馈!

[2009][欧美][剧情][BD-1080P]末日病毒/携带者 Carriers.2009.1080p.BluRay.x264-LCHD 6.56GB


帖子完整标题:末日病毒/携带者 Carriers.2009.1080p.BluRay.x264-LCHD 6.56GB



◎译  名 末日病毒/携带者/病毒携带者/绝命带原者
◎片  名 Carriers
◎年  代 2009
◎产  地 美国
◎类  别 剧情 / 惊悚 / 灾难
◎语  言 英语
◎上映日期 2009-08-18
◎IMDb评分6/10 from 43290 users
◎IMDb链接https://www.imdb.com/title/tt0806203/
◎豆瓣评分 6.3/10 from 12255 users
◎豆瓣链接 https://movie.douban.com/subject/2225784/
◎片  长 USA: 84 分钟
◎导  演 亚历克斯·帕斯特尔 àlex Pastor / 大卫·帕斯特尔 David Pastor
◎编  剧 亚历克斯·帕斯特尔 àlex Pastor / 大卫·帕斯特尔 David Pastor
◎主  演 卢·泰勒·普奇 Lou Taylor Pucci
     克里斯·派恩 Chris Pine
     派珀·佩拉博 Piper Perabo
     艾米丽·万凯普 Emily VanCamp
     克里斯托弗·米洛尼 Christopher Meloni
     Sequoyah Adams-Rice
     马克·摩斯 Mark Moses
     琪兰·席普卡 Kiernan Shipka

◎标  签 灾难 | 人性 | 美国 | 惊悚 | 恐怖 | 美国电影 | 2009 | 科幻

◎简  介

  一种高致命性和传染性的病毒在世界上蔓延开来,为了避难,丹尼(卢·泰勒·普奇 Lou Taylor Pucci 饰)和哥哥布莱恩(克里斯·派恩 Chris Pine 饰),女友波比(派珀·佩拉博 Piper Perabo 饰)还有好友凯特(艾米丽·万凯普 Emily VanCamp 饰),驾车以最快的速度穿越美国西南部的沙漠地带。他们希望寻找的是一个相对安全的地方,可是花掉了整整几天的时间,他们却意识到,也许偌大的国家再也没有可供他们容身的地方了。不仅是病毒的肆虐压迫着每个人的神经,他们还不断地被迫去面对道德伦理方面的决定和挑战制造出来的压力--都是一些他们以前无法想象出来的艰难与人性抉择。很快,他们就发现,原来阻挡在他们面前的最大的敌人,并不是不断袭击并打垮人类的致命细菌或病毒,而是隐藏在他们内心深处的黑暗与邪恶......

Video
ID : 1
Format : AVC
Format/Info: Advanced Video Codec
Format profile : [email protected]
Format settings: CABAC / 5 Ref Frames
Format settings, CABAC : Yes
Format settings, Reference frames: 5 frames
Codec ID : V_MPEG4/ISO/AVC
Duration : 1 h 24 min
Bit rate : 10.5 Mb/s
Width: 1 920 pixels
Height : 800 pixels
Display aspect ratio : 2.40:1
Frame rate mode: Constant
Frame rate : 24.000 FPS
Color space: YUV
Chroma subsampling : 4:2:0
Bit depth: 8 bits
Scan type: Progressive
Bits/(Pixel*Frame) : 0.284
Stream size: 6.05 GiB (92%)
Writing library: x264 core 80 r1376 3feaec2
Encoding settings: cabac=1 / ref=5 / deblock=1:-1:-1 / analyse=0x3:0x113 / me=umh / subme=7 / psy=1 / psy_rd=1.0:0.0 / mixed_ref=1 / me_range=16 / chroma_me=1 / trellis=2 / 8x8dct=1 / cqm=0 / deadzone=21,11 / fast_pskip=1 / chroma_qp_offset=-2 / threads=6 / sliced_threads=0 / nr=0 / decimate=1 / mbaff=0 / constrained_intra=0 / bframes=3 / b_pyramid=0 / b_adapt=2 / b_bias=0 / direct=3 / wpredb=1 / wpredp=2 / keyint=250 / keyint_min=25 / scenecut=40 / rc_lookahead=40 / rc=2pass / mbtree=1 / bitrate=10466 / ratetol=1.0 / qcomp=0.60 / qpmin=10 / qpmax=51 / qpstep=4 / cplxblur=20.0 / qblur=0.5 / vbv_maxrate=50000 / vbv_bufsize=50000 / ip_ratio=1.40 / aq=1:1.00
Language : English
Default: Yes
Forced : No

Audio
ID : 2
Format : AC-3
Format/Info: Audio Coding 3
Commercial name: Dolby Digital
Codec ID : A_AC3
Duration : 1 h 24 min
Bit rate mode: Constant
Bit rate : 640 kb/s
Channel(s) : 6 channels
Channel layout : L R C LFE Ls Rs
Sampling rate: 48.0 kHz
Frame rate : 31.250 FPS (1536 SPF)
Compression mode : Lossy
Stream size: 388 MiB (6%)
Language : English
Service kind : Complete Main
Default: Yes
Forced : No






Carriers.2009.1080p.BluRay.x264-LCHD.zip
还没有人收藏过本帖~
最新回复 (0)
返回
发新帖
即将对游客闭站,请注册账号备用!
影音屋为您提供最新的720P、1080P、2K、4K、原盘高清电影下载,内部交流社区,欢迎体验。影音屋,更多好电影待您发现!
加入福利电报群 加入福利企鹅群 淘宝天猫漏洞单