如资源无法下载,请在「交流」反馈!

[2014][日本][剧情][BD-1080P]神的病历簿2 The.Chart.of.Love.2014.JAPANESE.1080p.BluRay.x264-WiKi 7.18GB


帖子完整标题:神的病历簿2 The.Chart.of.Love.2014.JAPANESE.1080p.BluRay.x264-WiKi 7.18GB



◎译  名 神的病历簿2/God's Medical Records 2/上帝的处方2/上帝的诊疗簿2/神的病历本2/神的病历表2/神的诊疗簿2
◎片  名 神様のカルテ2
◎年  代 2014
◎产  地 日本
◎类  别 剧情
◎语  言 日语
◎上映日期 2014-03-21(日本)
◎IMDb评分6.8/10 from 58 users
◎IMDb链接https://www.imdb.com/title/tt2576828/
◎豆瓣评分 7.9/10 from 4605 users
◎豆瓣链接 https://movie.douban.com/subject/20445157/
◎片  长 120分钟
◎导  演 深川荣洋 Yoshihiro Fukagawa
◎编  剧 后藤法子 Noriko Got? / 夏川草介 S?suke Natsukawa
◎主  演 樱井翔 Sh? Sakurai
     宫崎葵 Aoi Miyazaki
     藤原龙也 Tatsuya Fujiwara
     柄本明 Akira Emoto
     原田泰造 Taizo Harada
     吹石一惠 Kazue Fukiishi
     市毛良枝 Yoshie Ichige
     滨田岳 Gaku Hamada
     吉濑美智子 Michiko Kichise
     要润 Jun Kaname
     藤本泉 Izumi Fujimoto
     佐藤二朗 Jir? Sat?
     池胁千鹤 Chizuru Ikewaki
     朝仓亚纪 Aki Asakura

◎标  签 日本电影 | 温情 | 2014 | 剧情 | 治愈 | 人性 | 嵐 | 文艺

◎简  介

  长期守候在本庄医院第一线的内科医生栗原一止(樱井翔 饰),即将和妻子榛名(宫崎葵 饰)迎接新生命的到来,但是工作和家庭间的矛盾也让他的内心升起隐隐的忧虑。与此同时,一止的医科大同学近藤辰也(藤原龙也 饰)作为血液科精英来到本庄医院。一止兴奋非常的同时,却发现曾经善良敬业的近藤变得冷漠无情。另一方面,常年驻守医院的恩师贯田诚太郎(柄本明 饰)突然病倒,很快便被诊断患有晚期淋巴癌。曾经为了医患牺牲家庭的贯田医生,总算迎来了和夫人千代(市毛良枝 饰)相守的短暂而珍贵的时光。医疗改革让病患们得到无微不至的关怀,但作为人而存在的医生则为此付出了更多、更多……
  
  本片根据夏川草芥的同名原作改编。

◎获奖情况

  第1届豆瓣电影年度榜单 ?(2014)
  评分最高的日本电影(提名)

Format : Matroska
Format version : Version 4 / Version 2
File size: 7.04 GiB
Duration : 1h 56mn
Overall bit rate : 8 663 Kbps
Movie name : Jubowo @ WiKi
Encoded date : UTC 2014-10-05 12:21:58
Writing application: mkvmerge v6.8.0 (\'Theme for Great Cities\') 64bit built on Mar2 2014 21:34:26
Writing library: libebml v1.3.0 + libmatroska v1.4.1
Attachment : Yes / Yes

Video
ID : 1
Format : AVC
Format/Info: Advanced Video Codec
Format profile : [email protected]
Format settings, CABAC : Yes
Format settings, ReFrames: 5 frames
Codec ID : V_MPEG4/ISO/AVC
Duration : 1h 56mn
Bit rate : 8 000 Kbps
Width: 1 920 pixels
Height : 808 pixels
Display aspect ratio : 2.40:1
Frame rate mode: Constant
Frame rate : 23.976 fps
Color space: YUV
Chroma subsampling : 4:2:0
Bit depth: 8 bits
Scan type: Progressive
Bits/(Pixel*Frame) : 0.215
Stream size: 6.38 GiB (91%)
Writing library: x264 core 129 r2245+704+36 8e61944 tMod+MixAQ [[email protected]:2:0 X86_64]
Encoding settings: cabac=1 / ref=5 / deblock=1:-3:-3 / analyse=0x3:0x133 / me=umh / subme=11 / psy=1 / fade_compensate=0.00 / psy_rd=1.05:0.10 / mixed_ref=1 / me_range=32 / chroma_me=1 / trellis=2 / 8x8dct=1 / cqm=0 / deadzone=21,11 / fast_pskip=0 / chroma_qp_offset=-3 / threads=18 / lookahead_threads=3 / sliced_threads=0 / nr=0 / decimate=0 / interlaced=0 / bluray_compat=0 / constrained_intra=0 / fgo=0 / bframes=10 / b_pyramid=2 / b_adapt=2 / b_bias=0 / direct=3 / weightb=1 / open_gop=0 / weightp=2 / keyint=250 / keyint_min=23 / scenecut=40 / intra_refresh=0 / rc_lookahead=80 / rc=2pass / mbtree=1 / bitrate=8000 / ratetol=1.0 / qcomp=0.70 / qpmin=0 / qpmax=69 / qpstep=4 / cplxblur=20.0 / qblur=0.5 / ip_ratio=1.40 / aq=3 / aq-strength=0.90 / aq-sensitivity=10.00 / aq-ifactor=1.00 / aq-pfactor=1.00 / aq-bfactor=1.00 / aq2=0
Language : English
Default: Yes
Forced : No

Audio
ID : 2
Format : AC-3
Format/Info: Audio Coding 3
Mode extension : CM (complete main)
Format settings, Endianness: Big
Codec ID : A_AC3
Duration : 1h 56mn
Bit rate mode: Constant
Bit rate : 640 Kbps
Channel(s) : 6 channels
Channel positions: Front: L C R, Side: L R, LFE
Sampling rate: 48.0 KHz
Bit depth: 16 bits
Compression mode : Lossy
Stream size: 533 MiB (7%)
Language : Japanese
Default: Yes
Forced : No

Text #1
ID : 3
Format : ASS
Codec ID : S_TEXT/ASS
Codec ID/Info: Advanced Sub Station Alpha
Compression mode : Lossless
Title: Simplified
Language : Chinese
Default: Yes
Forced : No

Text #2
ID : 4
Format : ASS
Codec ID : S_TEXT/ASS
Codec ID/Info: Advanced Sub Station Alpha
Compression mode : Lossless
Title: Traditional
Language : Chinese
Default: No
Forced : No

Menu
00:00:00.000 : en:00:00:00.000
00:04:13.419 : en:00:04:13.419
00:09:12.551 : en:00:09:12.551
00:14:04.385 : en:00:14:04.385
00:18:37.533 : en:00:18:37.533
00:28:04.265 : en:00:28:04.265
00:33:02.647 : en:00:33:02.647
00:39:41.545 : en:00:39:41.545
00:47:27.094 : en:00:47:27.094
00:56:16.664 : en:00:56:16.664
01:05:06.485 : en:01:05:06.485
01:11:56.186 : en:01:11:56.186
01:16:19.449 : en:01:16:19.449
01:22:13.053 : en:01:22:13.053
01:26:19.966 : en:01:26:19.966
01:31:29.150 : en:01:31:29.150
01:36:39.919 : en:01:36:39.919
01:41:55.943 : en:01:41:55.943
01:44:16.291 : en:01:44:16.291
01:51:10.664 : en:01:51:10.664






The.Chart.of.Love.2014.JAPANESE.1080p.BluRay.x264-WiKi.zip
还没有人收藏过本帖~
最新回复 (0)
返回
发新帖
即将对游客闭站,请注册账号备用!
影音屋为您提供最新的720P、1080P、2K、4K、原盘高清电影下载,内部交流社区,欢迎体验。影音屋,更多好电影待您发现!
加入福利电报群 加入福利企鹅群 淘宝天猫漏洞单