如资源无法下载,请在「交流」反馈!

[更 早][其他][其他][BD-1080P]七把锁的门 The.Door.With.Seven.Locks.1962.GERMAN.1080p.BluRay.x264.DTS-FGT 8.69GB


帖子完整标题:七把锁的门 The.Door.With.Seven.Locks.1962.GERMAN.1080p.BluRay.x264.DTS-FGT 8.69GB



◎译  名 七把锁的门/The Door with Seven Locks
◎片  名 Die Tür mit den 7 Schl?ssern
◎年  代 1962
◎产  地 西德,法国
◎类  别 悬疑 / 惊悚 / 恐怖 / 犯罪
◎语  言 德语
◎上映日期 1962-06-19(西德)
◎IMDb评分6.1/10 from 534 users
◎IMDb链接https://www.imdb.com/title/tt0056630/
◎豆瓣评分 /10 from 0 users
◎豆瓣链接 https://movie.douban.com/subject/3251007/
◎片  长 Germany: 95 分钟
◎导  演 阿尔弗雷德·福勒尔 Alfred Vohrer
◎编  剧 埃德加·华莱士 Edgar Wallace / 哈拉尔德·G·派特森 Harald G. Petersson / Gerhard F. Hummel
◎主  演 海因茨·德拉赫 Heinz Drache
     扎比内·泽塞尔曼 Sabine Sesselmann
     艾迪·艾伦特 Eddi Arent
     Eva Ebner
     维尔纳·彼得斯 Werner Peters
     简·亨德里克斯 Jan Hendriks
     Friedrich Joloff
     汉斯·尼尔森 Hans Nielsen
     Pinkas Braun
     Ady Berber
     吉塞拉·乌尔伦 Gisela Uhlen
     克劳斯·金斯基 Klaus Kinski
     西格弗雷德·斯楚瑞伯格 Siegfried Schürenberg
     阿尔弗雷德·福勒尔 Alfred Vohrer

◎标  签 德国电影 | 惊悚 | 德国 | 百度盘 | 犯罪 | 法国电影 | 暂存 | 改编

◎简  介

  暂无相关剧情介绍

Video
ID : 1
Format : AVC
Format/Info: Advanced Video Codec
Format profile : [email protected]
Format settings: CABAC / 4 Ref Frames
Format settings, CABAC : Yes
Format settings, Reference frames: 4 frames
Codec ID : V_MPEG4/ISO/AVC
Duration : 1 h 35 min
Bit rate : 11.5 Mb/s
Width: 1 796 pixels
Height : 1 080 pixels
Display aspect ratio : 5:3
Frame rate mode: Constant
Frame rate : 24.000 FPS
Color space: YUV
Chroma subsampling : 4:2:0
Bit depth: 8 bits
Scan type: Progressive
Bits/(Pixel*Frame) : 0.247
Stream size: 7.66 GiB (88%)
Title: The.Door.With.Seven.Locks.1962.GERMAN.1080p.BluRay.x264.DTS-FGT
Writing library: x264 core 148 r2795M aaa9aa8
Encoding settings: cabac=1 / ref=4 / deblock=1:-2:-2 / analyse=0x3:0x113 / me=umh / subme=9 / psy=1 / psy_rd=1.00:0.15 / mixed_ref=1 / me_range=16 / chroma_me=1 / trellis=2 / 8x8dct=1 / cqm=0 / deadzone=21,11 / fast_pskip=1 / chroma_qp_offset=-3 / threads=72 / lookahead_threads=3 / sliced_threads=0 / nr=0 / decimate=1 / interlaced=0 / bluray_compat=0 / constrained_intra=0 / bframes=3 / b_pyramid=2 / b_adapt=1 / b_bias=0 / direct=3 / weightb=1 / open_gop=0 / weightp=2 / keyint=250 / keyint_min=25 / scenecut=40 / intra_refresh=0 / rc_lookahead=50 / rc=2pass / mbtree=1 / bitrate=11500 / ratetol=1.0 / qcomp=0.60 / qpmin=0 / qpmax=69 / qpstep=4 / cplxblur=20.0 / qblur=0.5 / vbv_maxrate=31250 / vbv_bufsize=31250 / nal_hrd=none / filler=0 / ip_ratio=1.40 / aq=1:1.00
Default: Yes
Forced : No

Audio #1
ID : 2
ID in the original source medium : 4352 (0x1100)
Format : DTS
Format/Info: Digital Theater Systems
Codec ID : A_DTS
Duration : 1 h 35 min
Bit rate mode: Constant
Bit rate : 768 kb/s
Channel(s) : 2 channels
Channel layout : L R
Sampling rate: 48.0 kHz
Frame rate : 93.750 FPS (512 SPF)
Bit depth: 24 bits
Compression mode : Lossy
Stream size: 524 MiB (6%)
Title: The.Door.With.Seven.Locks.1962.GERMAN.1080p.BluRay.x264.DTS-FGT
Language : German
Default: No
Forced : No
Original source medium : Blu-ray

Audio #2
ID : 3
ID in the original source medium : 4353 (0x1101)
Format : DTS
Format/Info: Digital Theater Systems
Codec ID : A_DTS
Duration : 1 h 35 min
Bit rate mode: Constant
Bit rate : 768 kb/s
Channel(s) : 2 channels
Channel layout : L R
Sampling rate: 48.0 kHz
Frame rate : 93.750 FPS (512 SPF)
Bit depth: 24 bits
Compression mode : Lossy
Stream size: 524 MiB (6%)
Title: The.Door.With.Seven.Locks.1962.GERMAN.1080p.BluRay.x264.DTS-FGT
Language : English
Default: No
Forced : No
Original source medium : Blu-ray

Text
ID : 4
Format : UTF-8
Codec ID : S_TEXT/UTF8
Codec ID/Info: UTF-8 Plain Text
Duration : 1 h 33 min
Bit rate : 55 b/s
Count of elements: 815
Stream size: 38.0 KiB (0%)
Language : English
Default: Yes
Forced : No

Menu
00:00:00.000 : en:Chapter 01
00:04:30.166 : en:Chapter 02
00:08:11.041 : en:Chapter 03
00:13:52.291 : en:Chapter 04
00:23:56.833 : en:Chapter 05
00:32:24.875 : en:Chapter 06
00:44:06.208 : en:Chapter 07
00:51:52.208 : en:Chapter 08
00:58:50.041 : en:Chapter 09
01:06:28.583 : en:Chapter 10
01:14:09.375 : en:Chapter 11
01:23:35.000 : en:Chapter 12






The.Door.With.Seven.Locks.1962.GERMAN.1080p.BluRay.x264.DTS-FGT.zip
还没有人收藏过本帖~
最新回复 (0)
返回
发新帖
即将对游客闭站,请注册账号备用!
影音屋为您提供最新的720P、1080P、2K、4K、原盘高清电影下载,内部交流社区,欢迎体验。影音屋,更多好电影待您发现!
加入福利电报群 加入福利企鹅群 淘宝天猫漏洞单