如资源无法下载,请在「交流」反馈!

[更 早][其他][剧情][BD-1080P]文斯洛男孩/豪门风云 The.Winslow.Boy.1999.1080p.BluRay.x264.DTS-FGT 9.48GB


帖子完整标题:文斯洛男孩/豪门风云 The.Winslow.Boy.1999.1080p.BluRay.x264.DTS-FGT 9.48GB



◎译  名 文斯洛男孩/豪门风云
◎片  名 The Winslow Boy
◎年  代 1999
◎产  地 英国,美国
◎类  别 剧情 / 爱情
◎语  言 英语
◎上映日期 1999-04-22
◎IMDb评分7.3/10 from 7317 users
◎IMDb链接https://www.imdb.com/title/tt0155388/
◎豆瓣评分 7.5/10 from 53 users
◎豆瓣链接 https://movie.douban.com/subject/1294374/
◎片  长 104 分钟
◎导  演 大卫·马梅 David Mamet
◎编  剧 大卫·马梅 David Mamet
◎主  演 丽贝卡·彼得根 Rebecca Pidgeon
     杰玛·琼斯 Gemma Jones
     杰瑞米·诺森 Jeremy Northam
     奈杰尔·霍桑 Nigel Hawthorne
     科林·斯廷顿 Colin Stinton
     亚丁·吉勒特 Aden Gillett
     莎拉·斯图尔特 Sara Stewart
     莎拉·弗林德 Sarah Flind
     Perry Fenwick
     尼尔瑙兹 Neil North

◎标  签 英国电影 | 英国 | 1999 | 电影资料馆 | 法庭 | 成长 | NigelHawthorne | 爱情

◎简  介

  英国富豪温斯洛家族的13岁幼子,被怀疑偷窃5先令的邮资而遭到退学的命运,在极具声望的父亲、倡导人权的姐姐和一位具社会影响力的律师多方奔走下,他们不惧偏激的舆论攻讦,能否洗刷家耻呢?

◎获奖情况

  第52届戛纳电影节 ?(1999)
  一种关注单元一种关注大奖(提名) 大卫·马梅

Video
ID : 1
Format : AVC
Format/Info: Advanced Video Codec
Format profile : [email protected]
Format settings: CABAC / 4 Ref Frames
Format settings, CABAC : Yes
Format settings, Reference frames: 4 frames
Codec ID : V_MPEG4/ISO/AVC
Duration : 1 h 44 min
Bit rate : 11.5 Mb/s
Width: 1 916 pixels
Height : 1 080 pixels
Display aspect ratio : 16:9
Frame rate mode: Constant
Frame rate : 23.976 (24000/1001/189150) FPS
Color space: YUV
Chroma subsampling : 4:2:0
Bit depth: 8 bits
Scan type: Progressive
Bits/(Pixel*Frame) : 0.232
Stream size: 8.38 GiB (88%)
Title: The.Winslow.Boy.1999.1080p.BluRay.x264.DTS-FGT
Writing library: x264 core 148 r2748 97eaef2
Encoding settings: cabac=1 / ref=4 / deblock=1:-2:-2 / analyse=0x3:0x113 / me=umh / subme=9 / psy=1 / psy_rd=1.00:0.15 / mixed_ref=1 / me_range=16 / chroma_me=1 / trellis=2 / 8x8dct=1 / cqm=0 / deadzone=21,11 / fast_pskip=1 / chroma_qp_offset=-3 / threads=72 / lookahead_threads=3 / sliced_threads=0 / nr=0 / decimate=1 / interlaced=0 / bluray_compat=0 / constrained_intra=0 / bframes=3 / b_pyramid=2 / b_adapt=1 / b_bias=0 / direct=3 / weightb=1 / open_gop=0 / weightp=2 / keyint=250 / keyint_min=25 / scenecut=40 / intra_refresh=0 / rc_lookahead=50 / rc=2pass / mbtree=1 / bitrate=11500 / ratetol=1.0 / qcomp=0.60 / qpmin=0 / qpmax=69 / qpstep=4 / cplxblur=20.0 / qblur=0.5 / vbv_maxrate=31250 / vbv_bufsize=31250 / nal_hrd=none / filler=0 / ip_ratio=1.40 / aq=1:1.00
Language : English
Default: Yes
Forced : No

Audio
ID : 2
Format : DTS
Format/Info: Digital Theater Systems
Codec ID : A_DTS
Duration : 1 h 44 min
Bit rate mode: Constant
Bit rate : 1 509 kb/s
Channel(s) : 2 channels
Channel layout : L R
Sampling rate: 48.0 kHz
Frame rate : 93.750 FPS (512 SPF)
Bit depth: 16 bits
Compression mode : Lossy
Stream size: 1.10 GiB (12%)
Title: The.Winslow.Boy.1999.1080p.BluRay.x264.DTS-FGT
Language : English
Default: Yes
Forced : No

Text
ID : 3
Format : UTF-8
Codec ID : S_TEXT/UTF8
Codec ID/Info: UTF-8 Plain Text
Duration : 1 h 39 min
Bit rate : 100 b/s
Count of elements: 2100
Stream size: 73.1 KiB (0%)
Language : English
Default: Yes
Forced : No

Menu
00:00:00.000 : en:Chapter 01
00:01:50.318 : en:Chapter 02
00:08:46.275 : en:Chapter 03
00:22:15.042 : en:Chapter 04
00:27:55.131 : en:Chapter 05
00:36:54.879 : en:Chapter 06
00:51:21.787 : en:Chapter 07
01:00:52.190 : en:Chapter 08
01:08:25.935 : en:Chapter 09
01:15:40.160 : en:Chapter 10
01:28:25.341 : en:Chapter 11
01:41:19.364 : en:Chapter 12






The.Winslow.Boy.1999.1080p.BluRay.x264.DTS-FGT.zip
还没有人收藏过本帖~
最新回复 (0)
返回
发新帖
即将对游客闭站,请注册账号备用!
影音屋为您提供最新的720P、1080P、2K、4K、原盘高清电影下载,内部交流社区,欢迎体验。影音屋,更多好电影待您发现!
加入福利电报群 加入福利企鹅群 淘宝天猫漏洞单