如资源无法下载,请在「交流」反馈!

[更 早][欧美][剧情][BD-1080P]浴血蛟龙/杀戮都市 Showdown.in.Little.Tokyo.1991.1080p.BluRay.X264-AMIABLE 7.94GB


帖子完整标题:浴血蛟龙/杀戮都市 Showdown.in.Little.Tokyo.1991.1080p.BluRay.X264-AMIABLE 7.94GB



◎译  名 浴血蛟龙/杀戮都市
◎片  名 Showdown in Little Tokyo
◎年  代 1991
◎产  地 美国
◎类  别 剧情 / 喜剧 / 动作 / 犯罪
◎语  言 英语,日语
◎上映日期 1991-08-23
◎IMDb评分6.1/10 from 16247 users
◎IMDb链接https://www.imdb.com/title/tt0102915/
◎豆瓣评分 5.9/10 from 148 users
◎豆瓣链接 https://movie.douban.com/subject/1295630/
◎片  长 79 分钟
◎导  演 马克·L·莱斯特 Mark L. Lester
◎编  剧 斯蒂芬·格兰兹 Stephen Glantz
◎主  演 蒂亚·卡雷尔 Tia Carrere
     杜夫·龙格尔 Dolph Lundgren
     李国豪 Brandon Lee
     菲利普·丹 Philip Tan

◎标  签 动作 | 美国 | 李国豪 | 浴血蛟龙 | 犯罪 | 1991 | 电影 | Dolph_Lundgren

◎简  介

  在洛杉矶市日本人聚集的地区小东京,以吉田先生为首的铁爪帮横行霸道,欺凌善良百姓,并且野心勃勃的想独占全美毒品市场。肯纳与强尼是洛城警探负责缉毒扫黑的工作,面对高手如云的铁爪帮,他们是如何的出生入死为地方除害!

Video
ID : 1
Format : AVC
Format/Info: Advanced Video Codec
Format profile : [email protected]
Format settings: CABAC / 4 Ref Frames
Format settings, CABAC : Yes
Format settings, Reference frames: 4 frames
Codec ID : V_MPEG4/ISO/AVC
Duration : 1 h 18 min
Bit rate : 13.0 Mb/s
Width: 1 920 pixels
Height : 1 080 pixels
Display aspect ratio : 16:9
Frame rate mode: Constant
Frame rate : 23.976 (24000/1001/189150) FPS
Color space: YUV
Chroma subsampling : 4:2:0
Bit depth: 8 bits
Scan type: Progressive
Bits/(Pixel*Frame) : 0.262
Stream size: 6.96 GiB (88%)
Writing library: x264 core 146 r2538 121396c
Encoding settings: cabac=1 / ref=4 / deblock=1:-3:-3 / analyse=0x3:0x113 / me=umh / subme=8 / psy=1 / psy_rd=1.15:0.00 / mixed_ref=1 / me_range=16 / chroma_me=1 / trellis=1 / 8x8dct=1 / cqm=0 / deadzone=21,11 / fast_pskip=1 / chroma_qp_offset=-2 / threads=24 / lookahead_threads=4 / sliced_threads=0 / nr=0 / decimate=1 / interlaced=0 / bluray_compat=0 / constrained_intra=0 / bframes=3 / b_pyramid=2 / b_adapt=2 / b_bias=0 / direct=3 / weightb=1 / open_gop=0 / weightp=2 / keyint=240 / keyint_min=24 / scenecut=40 / intra_refresh=0 / rc_lookahead=50 / rc=2pass / mbtree=1 / bitrate=13005 / ratetol=1.0 / qcomp=0.60 / qpmin=0 / qpmax=69 / qpstep=4 / cplxblur=20.0 / qblur=0.5 / ip_ratio=1.40 / aq=1:1.00
Language : English
Default: Yes
Forced : No

Audio
ID : 2
Format : DTS
Format/Info: Digital Theater Systems
Codec ID : A_DTS
Duration : 1 h 18 min
Bit rate mode: Constant
Bit rate : 1 509 kb/s
Channel(s) : 2 channels
Channel layout : L R
Sampling rate: 48.0 kHz
Frame rate : 93.750 FPS (512 SPF)
Bit depth: 24 bits
Compression mode : Lossy
Stream size: 846 MiB (10%)
Language : English
Default: Yes
Forced : No

Text #1
ID : 3
Format : UTF-8
Codec ID : S_TEXT/UTF8
Codec ID/Info: UTF-8 Plain Text
Title: Forced
Language : English
Default: Yes
Forced : Yes

Text #2
ID : 4
Format : UTF-8
Codec ID : S_TEXT/UTF8
Codec ID/Info: UTF-8 Plain Text
Language : English
Default: No
Forced : No

Text #3
ID : 5
Format : UTF-8
Codec ID : S_TEXT/UTF8
Codec ID/Info: UTF-8 Plain Text
Title: SDH
Language : English
Default: No
Forced : No

Menu
00:00:00.000 : en:00:00:00.000
00:02:33.028 : en:00:02:33.028
00:05:41.132 : en:00:05:41.132
00:09:56.763 : en:00:09:56.763
00:12:54.273 : en:00:12:54.273
00:17:36.264 : en:00:17:36.264
00:20:15.297 : en:00:20:15.297
00:24:49.154 : en:00:24:49.154
00:30:00.632 : en:00:30:00.632
00:33:36.556 : en:00:33:36.556
00:39:01.506 : en:00:39:01.506
00:41:37.912 : en:00:41:37.912
00:48:23.234 : en:00:48:23.234
00:50:04.752 : en:00:50:04.752
00:53:21.907 : en:00:53:21.907
00:56:44.067 : en:00:56:44.067
00:59:01.037 : en:00:59:01.037
01:02:26.076 : en:01:02:26.076
01:06:58.640 : en:01:06:58.640
01:09:47.850 : en:01:09:47.850
01:11:10.975 : en:01:11:10.975
01:15:19.306 : en:01:15:19.306






Showdown.in.Little.Tokyo.1991.1080p.BluRay.X264-AMIABLE.zip
还没有人收藏过本帖~
最新回复 (0)
返回
发新帖
即将对游客闭站,请注册账号备用!
影音屋为您提供最新的720P、1080P、2K、4K、原盘高清电影下载,内部交流社区,欢迎体验。影音屋,更多好电影待您发现!
加入福利电报群 加入福利企鹅群 淘宝天猫漏洞单