如资源无法下载,请在「交流」反馈!

[2015][欧美][其他][BD-1080P]它在身后/形影不离 It.Follows.2014.1080p.BluRay.X264-AMIABLE 7.65GB


帖子完整标题:它在身后/形影不离 It.Follows.2014.1080p.BluRay.X264-AMIABLE 7.65GB



◎译  名 它在身后/形影不离/灵病(台)/神秘追随/鬼上你的床(港)
◎片  名 It Follows
◎年  代 2015
◎产  地 美国
◎类  别 悬疑 / 恐怖
◎语  言 英语
◎上映日期 2015-03-27(美国)
◎IMDb评分6.8/10 from 206186 users
◎IMDb链接https://www.imdb.com/title/tt3235888/
◎豆瓣评分 6.4/10 from 22790 users
◎豆瓣链接 https://movie.douban.com/subject/25870483/
◎片  长 100分钟
◎导  演 大卫·罗伯特·米切尔 David Robert Mitchell
◎编  剧 大卫·罗伯特·米切尔 David Robert Mitchell
◎主  演 麦卡·梦露 Maika Monroe
     凯尔·吉克瑞斯特 Keir Gilchrist
     丹尼尔·祖瓦图 Daniel Zovatto
     杰克·威利 Jake Weary
     奥莉维亚·卢卡尔迪 Olivia Luccardi
     莉莉·塞佩 Lili Sepe
     Rich Vreeland
     克莱尔·斯洛玛 Claire Sloma
     埃莱·巴德汉 Ele Bardha
     罗兰·巴斯 Loren Bass

◎标  签 恐怖 | 惊悚 | 美国 | 悬疑 | 灵异 | 青春 | 2015 | 心理

◎简  介

  19岁的女孩洁依(麦卡·梦露 Maika Monroe 饰)美丽迷人,她憧憬浪漫美好的青春恋情,却未曾想莫大的灾难突然降临。她和男孩休(杰克·威尔瑞 Jake Weary 饰)外出约会,期间休表现出恐慌的一面。在那个迷离的夜晚,燕好之后的洁依遭到休粗暴对待,继而得知休恐 慌的原因。原来一直有一个他人看不见的“人”跟随着休,TA可以变换任何人的容貌,并以杀死休为目标。摆脱TA的方法只有通过性将其转给其他人。自此之后,洁依无时无刻不出在恐慌之中,妹妹凯莉以及好友保罗、雅拉等人为其担忧,可是那看不见的追踪者随时随地出现。
  
  TA是洁依无法摆脱的原罪,是投射在灵魂深处的恐怖阴影……

◎获奖情况

  第87届美国国家评论协会奖 ?(2015)
  十佳独立电影
  
  第21届美国评论家选择电影奖 ?(2016)
  最佳科幻/恐怖片(提名)
  
  第31届美国独立精神奖 ?(2016)
  最佳导演(提名) 大卫·罗伯特·米切尔
  最佳摄影(提名) 迈克·吉奥拉基斯
  最佳剪辑(提名) 胡里奥·佩雷斯四世
  
  第6届豆瓣电影鑫像奖 ?(2016)
  鑫豆单元最佳惊悚/悬疑片(提名)

Video
ID : 1
Format : AVC
Format/Info: Advanced Video Codec
Format profile : [email protected]
Format settings: CABAC / 5 Ref Frames
Format settings, CABAC : Yes
Format settings, Reference frames: 5 frames
Codec ID : V_MPEG4/ISO/AVC
Duration : 1 h 40 min
Bit rate : 9 420 kb/s
Width: 1 920 pixels
Height : 800 pixels
Display aspect ratio : 2.40:1
Frame rate mode: Constant
Frame rate : 23.976 (24000/1001/189150) FPS
Color space: YUV
Chroma subsampling : 4:2:0
Bit depth: 8 bits
Scan type: Progressive
Bits/(Pixel*Frame) : 0.256
Stream size: 6.44 GiB (84%)
Writing library: x264 core 146 r2538 121396c
Encoding settings: cabac=1 / ref=5 / deblock=1:-3:-3 / analyse=0x3:0x113 / me=umh / subme=8 / psy=1 / psy_rd=1.00:0.00 / mixed_ref=1 / me_range=16 / chroma_me=1 / trellis=1 / 8x8dct=1 / cqm=0 / deadzone=21,11 / fast_pskip=1 / chroma_qp_offset=-2 / threads=18 / lookahead_threads=3 / sliced_threads=0 / nr=0 / decimate=1 / interlaced=0 / bluray_compat=0 / constrained_intra=0 / bframes=3 / b_pyramid=2 / b_adapt=2 / b_bias=0 / direct=3 / weightb=1 / open_gop=0 / weightp=2 / keyint=240 / keyint_min=24 / scenecut=40 / intra_refresh=0 / rc_lookahead=50 / rc=2pass / mbtree=1 / bitrate=9420 / ratetol=1.0 / qcomp=0.60 / qpmin=0 / qpmax=69 / qpstep=4 / cplxblur=20.0 / qblur=0.5 / ip_ratio=1.40 / aq=1:1.00
Language : English
Default: Yes
Forced : No

Audio
ID : 2
Format : DTS
Format/Info: Digital Theater Systems
Codec ID : A_DTS
Duration : 1 h 40 min
Bit rate mode: Constant
Bit rate : 1 509 kb/s
Channel(s) : 6 channels
ChannelLayout_Original : C L R Ls Rs LFE
Sampling rate: 48.0 kHz
Frame rate : 93.750 FPS (512 SPF)
Bit depth: 24 bits
Compression mode : Lossy
Stream size: 1.06 GiB (14%)
Language : English
Default: Yes
Forced : No

Menu
00:00:00.000 : en:00:00:00.000
00:03:53.150 : en:00:03:53.150
00:08:46.901 : en:00:08:46.901
00:13:58.671 : en:00:13:58.671
00:22:05.115 : en:00:22:05.115
00:27:20.931 : en:00:27:20.931
00:32:12.514 : en:00:32:12.514
00:44:38.467 : en:00:44:38.467
00:49:14.994 : en:00:49:14.994
00:53:58.777 : en:00:53:58.777
01:02:48.056 : en:01:02:48.056
01:07:45.019 : en:01:07:45.019
01:16:13.485 : en:01:16:13.485
01:26:19.174 : en:01:26:19.174
01:31:18.681 : en:01:31:18.681
01:35:42.195 : en:01:35:42.195






It.Follows.2014.1080p.BluRay.X264-AMIABLE.zip
还没有人收藏过本帖~
最新回复 (0)
返回
发新帖
即将对游客闭站,请注册账号备用!
影音屋为您提供最新的720P、1080P、2K、4K、原盘高清电影下载,内部交流社区,欢迎体验。影音屋,更多好电影待您发现!
加入福利电报群 加入福利企鹅群 淘宝天猫漏洞单