如资源无法下载,请在「交流」反馈!

[更 早][其他][剧情][BD-1080P]逐个淹死/挨个儿淹死 Drowning.by.Numbers.1988.1080p.BluRay.X264-AMIABLE 9.84GB


帖子完整标题:逐个淹死/挨个儿淹死 Drowning.by.Numbers.1988.1080p.BluRay.X264-AMIABLE 9.84GB



◎译  名 逐个淹死/挨个儿淹死/淹死老公
◎片  名 Drowning by Numbers
◎年  代 1988
◎产  地 英国,荷兰
◎类  别 剧情 / 喜剧
◎语  言 英语
◎上映日期 1988-10-05
◎IMDb评分7.2/10 from 8008 users
◎IMDb链接https://www.imdb.com/title/tt0092929/
◎豆瓣评分 7.5/10 from 521 users
◎豆瓣链接 https://movie.douban.com/subject/1424664/
◎片  长 118 分钟
◎导  演 彼得·格林纳威 Peter Greenaway
◎编  剧 彼得·格林纳威 Peter Greenaway
◎主  演 琼·普莱怀特 Joan Plowright
     茱丽叶特·斯蒂文森 Juliet Stevenson
     乔莉·理查德森 Joely Richardson
     崔佛·库珀 Trevor Cooper
     大卫·莫瑞瑟 David Morrissey
     伯纳德·希尔 Bernard Hill
     Ian Talbot
     Edward Tudor-Pole
     布莱恩·普林格 Bryan Pringle
     瓦尼·科洛贝里尼 Vanni Corbellini

◎标  签 英国 | 彼得·格林纳威 | PeterGreenaway | Cult | 英国电影 | Peter_Greenaway | 1988 | 1980s

◎简  介

  英国某沿海小镇,住着三个同样名叫希希·考尔皮茨的女子。年过六旬的希希(Joan Plowright 饰)在生日当天发现丈夫杰克(Bryan Pringle 饰)公然在家中和别的女人幽会,于是趁杰克醉酒之时将其在浴缸溺死;25岁的希希(朱丽叶·史蒂文森 Juliet Stevenson 饰)与丈夫哈迪(Trevor Cooper 饰)过着养尊处优的生活,但哈迪是个痴肥且禁欲的家伙,希希一怒之下将其溺死大海之中;19岁的游泳选手希希(朱莉·理查德森 Joely Richardson 饰)与爱人贝拉米(David Morrissey 饰)结婚不久,贝拉米怀疑另外两个希希杀害了各自的丈夫,并且验尸官马吉特(伯纳德·希尔 Bernard Hill 饰)也从中搞鬼。出于对同伴的保护,希希在泳池溺杀了丈夫……
  
  本片荣获1988年戛纳电影节最佳艺术贡献奖、1991年西雅图国际电影节金天线奖。

◎获奖情况

  第41届戛纳电影节 ?(1988)
  主竞赛单元金棕榈奖(提名) 彼得·格林纳威
  最佳艺术贡献 彼得·格林纳威

Video
ID : 1
Format : AVC
Format/Info: Advanced Video Codec
Format profile : [email protected]
Format settings: CABAC / 4 Ref Frames
Format settings, CABAC : Yes
Format settings, Reference frames: 4 frames
Codec ID : V_MPEG4/ISO/AVC
Duration : 1 h 59 min
Bit rate : 11.2 Mb/s
Width: 1 808 pixels
Height : 1 080 pixels
Display aspect ratio : 5:3
Frame rate mode: Constant
Frame rate : 23.976 (24000/1001/189150) FPS
Color space: YUV
Chroma subsampling : 4:2:0
Bit depth: 8 bits
Scan type: Progressive
Bits/(Pixel*Frame) : 0.239
Stream size: 9.11 GiB (93%)
Writing library: x264 core 146 r2538 121396c
Encoding settings: cabac=1 / ref=4 / deblock=1:-3:-3 / analyse=0x3:0x113 / me=umh / subme=8 / psy=1 / psy_rd=1.15:0.00 / mixed_ref=1 / me_range=16 / chroma_me=1 / trellis=1 / 8x8dct=1 / cqm=0 / deadzone=21,11 / fast_pskip=1 / chroma_qp_offset=-2 / threads=6 / lookahead_threads=1 / sliced_threads=0 / nr=0 / decimate=1 / interlaced=0 / bluray_compat=0 / constrained_intra=0 / bframes=3 / b_pyramid=2 / b_adapt=2 / b_bias=0 / direct=3 / weightb=1 / open_gop=0 / weightp=2 / keyint=240 / keyint_min=24 / scenecut=40 / intra_refresh=0 / rc_lookahead=50 / rc=2pass / mbtree=1 / bitrate=11180 / ratetol=1.0 / qcomp=0.60 / qpmin=0 / qpmax=69 / qpstep=4 / cplxblur=20.0 / qblur=0.5 / ip_ratio=1.40 / aq=1:1.00
Language : English
Default: Yes
Forced : No

Audio
ID : 2
Format : AC-3
Format/Info: Audio Coding 3
Commercial name: Dolby Digital
Codec ID : A_AC3
Duration : 1 h 59 min
Bit rate mode: Constant
Bit rate : 640 kb/s
Channel(s) : 2 channels
Channel layout : L R
Sampling rate: 48.0 kHz
Frame rate : 31.250 FPS (1536 SPF)
Compression mode : Lossy
Stream size: 545 MiB (5%)
Language : English
Service kind : Complete Main
Default: Yes
Forced : No

Text #1
ID : 3
Format : UTF-8
Codec ID : S_TEXT/UTF8
Codec ID/Info: UTF-8 Plain Text
Language : English
Default: No
Forced : No

Text #2
ID : 4
Format : UTF-8
Codec ID : S_TEXT/UTF8
Codec ID/Info: UTF-8 Plain Text
Title: SDH
Language : English
Default: No
Forced : No

Menu
00:00:00.000 : en:00:00:00.000
00:07:37.499 : en:00:07:37.499
00:17:07.068 : en:00:17:07.068
00:28:38.717 : en:00:28:38.717
00:38:06.701 : en:00:38:06.701
00:49:49.904 : en:00:49:49.904
00:56:31.638 : en:00:56:31.638
01:08:48.249 : en:01:08:48.249
01:21:54.743 : en:01:21:54.743
01:28:44.027 : en:01:28:44.027
01:39:45.605 : en:01:39:45.605
01:49:55.631 : en:01:49:55.631






Drowning.by.Numbers.1988.1080p.BluRay.X264-AMIABLE.zip
还没有人收藏过本帖~
最新回复 (0)
返回
发新帖
即将对游客闭站,请注册账号备用!
影音屋为您提供最新的720P、1080P、2K、4K、原盘高清电影下载,内部交流社区,欢迎体验。影音屋,更多好电影待您发现!
加入福利电报群 加入福利企鹅群 淘宝天猫漏洞单