如资源无法下载,请在「交流」反馈!

[2015][其他][动作][BD-1080P]极爆少年/涡轮小子 Turbo.Kid.2015.LIMITED.1080p.BluRay.x264-AMIABLE 6.63GB


帖子完整标题:极爆少年/涡轮小子 Turbo.Kid.2015.LIMITED.1080p.BluRay.x264-AMIABLE 6.63GB



◎译  名 极爆少年/涡轮小子
◎片  名 Turbo Kid
◎年  代 2015
◎产  地 新西兰,加拿大
◎类  别 动作 / 科幻 / 恐怖
◎语  言 英语
◎上映日期 2015-08-14(加拿大)
◎IMDb评分6.7/10 from 25962 users
◎IMDb链接https://www.imdb.com/title/tt3672742/
◎豆瓣评分 5.5/10 from 2199 users
◎豆瓣链接 https://movie.douban.com/subject/26277174/
◎片  长 90分钟
◎导  演 弗朗索瓦·西玛德 Fran?ois Simard / 阿努克·惠斯塞尔 Anouk Whissell / 约恩-卡尔·惠斯塞尔 Yoann-Karl Whissell
◎编  剧 弗朗索瓦·西玛德 Fran?ois Simard / 阿努克·惠斯塞尔 Anouk Whissell / 约恩-卡尔·惠斯塞尔 Yoann-Karl Whissell
◎主  演 迈克尔·艾恩塞德 Michael Ironside
     Aaron Jeffery
     罗曼诺·欧萨里 Romano Orzari
     劳伦斯·勒波芙 Laurence Leboeuf
     帕特里克·克尔顿 Patrick Kerton
     史蒂夫·伦纳德 Steeve Léonard
     门罗·钱伯斯 Munro Chambers

◎标  签 科幻 | 血腥 | 动作 | 加拿大 | 2015 | Cult | 新西兰 | cult

◎简  介

  1997年,和战争几乎摧毁了旧世界的一切,天灾人祸,世道离乱,幸存者艰难求生,文明沦落,这是一个弱肉强食的残酷世界。少年(Munro Chambers 饰)居住在隐蔽的所在,他经常出没在废墟间,依他称之为“寻宝”的方式寻找有用的物品,然后换取食物以及他最喜欢的漫画书《极爆战士》。在此期间,古灵精怪的女孩“苹果”爱普尔(Laurence Leboeuf 饰)自顾自闯入少年的领地,虽然起初颇有些不情愿,不过少年慢慢接受了这个新伙伴。当他们的关系终于更进一步的时候,女孩突然被某个邪恶组织抓走,被迫要参加血腥残酷的角斗大赛。
  
  为了救回爱普尔,少年化身他最崇拜的漫画英雄极爆战士冲入对方的领地……

◎获奖情况

  第19届富川国际奇幻电影节 ?(2015)
  富川选择奖(长片)最佳影片(提名)
  富川选择奖(长片)最佳导演 弗朗索瓦·西玛德?/?阿努克·惠斯塞尔?/?约恩-卡尔·惠斯塞尔

Video
ID : 1
Format : AVC
Format/Info: Advanced Video Codec
Format profile : [email protected]
Format settings: CABAC / 5 Ref Frames
Format settings, CABAC : Yes
Format settings, Reference frames: 5 frames
Codec ID : V_MPEG4/ISO/AVC
Duration : 1 h 32 min
Bit rate : 8 596 kb/s
Width: 1 920 pixels
Height : 808 pixels
Display aspect ratio : 2.40:1
Frame rate mode: Constant
Frame rate : 23.976 (24000/1001/189150) FPS
Color space: YUV
Chroma subsampling : 4:2:0
Bit depth: 8 bits
Scan type: Progressive
Bits/(Pixel*Frame) : 0.231
Stream size: 5.45 GiB (83%)
Writing library: x264 core 148 r2597 e86f3a1
Encoding settings: cabac=1 / ref=5 / deblock=1:-3:-3 / analyse=0x3:0x113 / me=umh / subme=8 / psy=1 / psy_rd=1.00:0.00 / mixed_ref=1 / me_range=16 / chroma_me=1 / trellis=1 / 8x8dct=1 / cqm=0 / deadzone=21,11 / fast_pskip=1 / chroma_qp_offset=-2 / threads=12 / lookahead_threads=2 / sliced_threads=0 / nr=0 / decimate=1 / interlaced=0 / bluray_compat=0 / constrained_intra=0 / bframes=3 / b_pyramid=2 / b_adapt=2 / b_bias=0 / direct=3 / weightb=1 / open_gop=0 / weightp=2 / keyint=240 / keyint_min=24 / scenecut=40 / intra_refresh=0 / rc_lookahead=50 / rc=2pass / mbtree=1 / bitrate=8596 / ratetol=1.0 / qcomp=0.60 / qpmin=0 / qpmax=69 / qpstep=4 / cplxblur=20.0 / qblur=0.5 / ip_ratio=1.40 / aq=1:1.00
Language : English
Default: Yes
Forced : No

Audio
ID : 2
Format : DTS
Format/Info: Digital Theater Systems
Codec ID : A_DTS
Duration : 1 h 32 min
Bit rate mode: Constant
Bit rate : 1 509 kb/s
Channel(s) : 6 channels
ChannelLayout_Original : C L R Ls Rs LFE
Sampling rate: 48.0 kHz
Frame rate : 93.750 FPS (512 SPF)
Bit depth: 24 bits
Compression mode : Lossy
Stream size: 1 003 MiB (15%)
Language : English
Default: Yes
Forced : No

Text #1
ID : 3
Format : UTF-8
Codec ID : S_TEXT/UTF8
Codec ID/Info: UTF-8 Plain Text
Language : English
Default: No
Forced : No

Text #2
ID : 4
Format : UTF-8
Codec ID : S_TEXT/UTF8
Codec ID/Info: UTF-8 Plain Text
Title: SDH
Language : English
Default: No
Forced : No

Menu
00:00:00.000 : en:00:00:00.000
00:06:45.363 : en:00:06:45.363
00:15:51.742 : en:00:15:51.742
00:23:48.260 : en:00:23:48.260
00:31:56.248 : en:00:31:56.248
00:42:37.597 : en:00:42:37.597
00:46:55.104 : en:00:46:55.104
00:55:19.274 : en:00:55:19.274
01:05:08.071 : en:01:05:08.071
01:17:25.266 : en:01:17:25.266
01:21:10.574 : en:01:21:10.574
01:28:09.701 : en:01:28:09.701






Turbo.Kid.2015.LIMITED.1080p.BluRay.x264-AMIABLE.zip
还没有人收藏过本帖~
最新回复 (0)
返回
发新帖
即将对游客闭站,请注册账号备用!
影音屋为您提供最新的720P、1080P、2K、4K、原盘高清电影下载,内部交流社区,欢迎体验。影音屋,更多好电影待您发现!
加入福利电报群 加入福利企鹅群 淘宝天猫漏洞单